Help - Search - Members - Calendar
Full Version: Svrm - При смерти [demo] (2016)
Metal Area - Extreme Music Portal > Releases Area / Релизы > Archive
Velmi


*Artist: Svrm
*Album: При смерти [demo]
*Year: 2016
*Genre: Black Metal
*Country: Ukraine
*Format: mp3@CBR320kbps
*Size: 15MB

Tracklist:
1. Экуменополис 03:15
2. Рабство 03:01
******************************
Total playing time: 6:16



Extended info
Highly recommended!


Technical info

Input File: 01. Экуменополис.mp3
Channels : 2
Sample Rate : 44100
Precision : 16-bit
Duration : 00:03:15.18 = 8607394 samples = 14638.4 CDDA sectors
File Size : 7.96M
Bit Rate : 326k
Sample Encoding: MPEG audio (layer I, II or III)
Comments :
Title=Экуменополис
Artist=svrm
Album=При смерти
Tracknumber=01/02
Year=2016
Genre=Black Metal



[ Hidden Text ]
recber
Кто такие почему не знаю crazy.gif
General
еле нашел [ Hidden Text ]
This is a "lo-fi" version of our main content. To view the full version with more information, formatting and images, please click here.
Invision Power Board © 2001-2024 Invision Power Services, Inc.