Help - Search - Members - Calendar
Full Version: Alice In Chains - Man In The Box [single] (1990)
Metal Area - Extreme Music Portal > Releases Area / Релизы > New Releases > Unformat R:
klesch


*Artist: Alice In Chains
*Album: Man In The Box [single]
*Year: 1990
*Genre: Grunge
*Country: United States
*Format: mp3@CBR320kbps
*Size: 41MB

Tracklist:
1. Man In The Box
2. Sea Of Sorrow (Excerpt)
3. Bleed The Freak (Excerpt)
4. Sunshine (Excerpt)
******************************
Total playing time: 18:28



Technical info

Input File: 2 Sea of Sorrow.mp3
Channels : 2
Sample Rate : 44100
Precision : 16-bit
Duration : 00:05:25.41 = 14350757 samples = 24406 CDDA sectors
File Size : 13.1M
Bit Rate : 321k
Sample Encoding: MPEG audio (layer I, II or III)
Comments :
Title=Sea of Sorrow
Artist=Alice in Chains
Album=Man In The Box
Tracknumber=2
Year=1990
Genre=Heavy Metal/Grunge



[ Hidden Text ]
nnnmmm
Reuploaded Mp3 CBR 320, 2-track CD version
[ Hidden Text ]
This is a "lo-fi" version of our main content. To view the full version with more information, formatting and images, please click here.
Invision Power Board © 2001-2019 Invision Power Services, Inc.