Help - Search - Members - Calendar
Full Version: Jarnvidr - Förqwäwd (2016)
Metal Area - Extreme Music Portal > Releases Area / Релизы > New Releases > Lossless
Velmi


*Artist: Jarnvidr
*Album: Förqwäwd
*Year: 2016
*Genre: Black Metal
*Country: Sweden
*Format: mp3@CBR320kbps
*Size: 99MB

Tracklist:
1. Resurgam (Intro) 01:02
2. För Evärdliga Tider 02:56
3. Svarta Stjärnvalv 03:16
4. Första Ritualen 01:23
5. Att Bemästra Skaldekonsten 03:51
6. Surtalogi / Världsbrand 02:46
7. Eitrdropar 03:58
8. Kultförbund 03:24
9. Andra Ritualen 01:32
10. Helgelundar 03:34
11. När Gudarna Tystnar 04:14
12. Slättbygdens Folk 04:27
13. Bortsvuren (Outro) 01:55
******************************
Total playing time: 38:18

Extended info
Darker Than Black – DTB 245
12'' LP limited to 300 copies
KVLT!


Technical info

Input File: B1. Kultf?rbund.mp3
Channels : 2
Sample Rate : 44100
Precision : 16-bit
Duration : 00:03:23.28 = 8964692 samples = 15246.1 CDDA sectors
File Size : 8.27M
Bit Rate : 326k
Sample Encoding: MPEG audio (layer I, II or III)
Comments :
Title=Kultförbund
Artist=Jarnvidr
Album=Förqwäwd
Tracknumber=08/13
Year=2016
Genre=Black Metal



[ Hidden Text ]
Абигор
Прямая ссылка -
[ Hidden Text ]
vosmidesijatye
Отличный северный блэк метал, морозный, инеистый, злой и атмосферный. Ничего нового, да и копипаст местами пробегает, но душевно и цепляет.
Sangreal
прослушивание альбома не стало бездарно потраченным временем, но и удовольствия не доставило.
100500 раз уже игранные-переигранные риффы. очень шаблонно, однообразно и предсказуемо. напоминает Likvann, но норвежцы ещё примитивнее.
среднестатистический шведский БМ в духе старой школы. больше сказать нечего.
Corpse_Of_The_Christ
Fess
Прошу меня простить, но я не оценил альбом. Мне он показался скучным и не интересным. 21.gif
urdung
320 kbps + scans
[ Hidden Text ]
Moldavite
[ Hidden Text ]
This is a "lo-fi" version of our main content. To view the full version with more information, formatting and images, please click here.
Invision Power Board © 2001-2021 Invision Power Services, Inc.