Help - Search - Members - Calendar
Full Version: Darkest Sins - The Broken (2016)
Metal Area - Extreme Music Portal > Releases Area / Релизы > New Releases > Lossless
necroscum


*Artist: Darkest Sins
*Album: The Broken
*Year: 2016
*Genre: Heavy Metal
*Country: Norway
*Format: mp3@CBR320kbps
*Size: 102MB

Tracklist:
01. The Broken 06:45
02. Darkest Sins 05:07
03. Fear 04:28
04. Domineer 04:13
05. World on Fire 05:12
06. Rough Love 03:31
07. Slowly Dying 05:42
08. Far Away 11:18
******************************
Total playing time: 46:16





Technical info

Input File: 03. Fear.mp3
Channels : 2
Sample Rate : 44100
Precision : 16-bit
Duration : 00:04:28.54 = 11842658 samples = 20140.6 CDDA sectors
File Size : 10.9M
Bit Rate : 323k
Sample Encoding: MPEG audio (layer I, II or III)
Comments :
Title=Fear
Artist=Darkest Sins
Album=The Broken
Tracknumber=3
Year=2016
Genre=Heavy Metal
Discnumber=1



[ Hidden Text ]
AHBAnep
На #8 должен быть Фабио Лионе...
[ Hidden Text ]
Остальное - в топку.
И да, это мелодик хэви.
Andrew
Уж слишком сопливый мелодик хеви
DenisKov
Не переношу эти писклявые вокалы, в музыку даже не вслушивался.
Ulfhethnaar
Альтернативная ссылка
[ Hidden Text ]
orloff2000
Thank you very much, but unfortunately the link is no longer available 6.gif
Can anyone help?
Borderline1991
[ Hidden Text ][ Hidden Text ]
This is a "lo-fi" version of our main content. To view the full version with more information, formatting and images, please click here.
Invision Power Board © 2001-2021 Invision Power Services, Inc.