Help - Search - Members - Calendar
Full Version: Flom - Elders [ep] (2016)
Metal Area - Extreme Music Portal > Releases Area / Релизы > Archive
aesteticvice


*Artist: Flom
*Album: Elders [ep]
*Year: 2016
*Genre: Progressive Death/Doom Metal
*Country: Norway
*Format: mp3@CBR320kbps
*Size: 38MB

Tracklist:
1. Head On 04:37
2. Elders 03:31
3. The Letter 04:11
4. Razor 03:54
******************************
Total playing time: 16:13



Extended info
весьма необычная комбинация, этакий математический дум/дэт
Per-Kristian Vinje (guitars, bass, vocals)
Lars Ødegård (drums)




Technical info

Input File: 02 Elders.mp3
Channels : 2
Sample Rate : 44100
Precision : 16-bit
Duration : 00:03:31.64 = 9333192 samples = 15872.8 CDDA sectors
File Size : 8.61M
Bit Rate : 326k
Sample Encoding: MPEG audio (layer I, II or III)
Comments :
Title=Elders
Artist=Flom
Album=Elders
Tracknumber=2
Year=2016



[ Hidden Text ]
KVRT
шо не трацк, то колбасяо 9.gif
маломаломаловато..
This is a "lo-fi" version of our main content. To view the full version with more information, formatting and images, please click here.
Invision Power Board © 2001-2021 Invision Power Services, Inc.