*Artist: A Produce
*Album: Black Sands [best of/compilation]
*Year: 2005
*Genre: Ambient/Drone/Tribal/Experimental
*Country: United States
*Format: mp3@CBR320kbps
*Size: 421MB

Tracklist:
CD 1: The Map

1-01. An Indian Surface 15:27
1-02. Farming In Arabia 5:34
1-03. #3 (For Jackson Pollack) 2:50
1-04. Rhyolite 4:20
1-05. Vectoring 6:42
1-06. Midnight Pond 6:33
1-07. Smile On The Void 9:00
1-08. Night Curve 5:48
1-09. Inner Sanctum 8:06

CD 2: The Territory

2-01. The Far Shore 6:34
2-02. Land Of A Thousand Trances 8:22
2-03. This Dream Too 6:50
2-04. The Hidden Observer (Dry Lake Version) 5:46
2-05. Inscape & Landscape (Big Bounce Version) 4:59
2-06. The Golden Needle 7:11
2-07. Modern Rituals 2:21
2-08. The Barrier 3:02
2-09. Altara 5:25
2-10. Rousseau's Jungle 6:34
2-11. Jimbe 6:09

CD 3: The Reality
3-01. Diffusion 6:06
3-02. The Velvet Alley 5:00
3-03. Day Dream 4:41
3-04. In The Breeze 6:07
3-05. Darkness Descends 5:10
3-06. Katmandu Sunrise 8:31
3-07. Waterground 5:35
3-08. Heart Of The Dunes 8:20
3-09. The Dreaming Room 13:15
******************************
Total playing time: 3:10:18



Technical info

Input File: 03. #3 (for Jackson Pollack).mp3
Channels : 2
Sample Rate : 44100
Precision : 16-bit
Duration : 00:02:50.19 = 7505379 samples = 12764.2 CDDA sectors
File Size : 6.96M
Bit Rate : 327k
Sample Encoding: MPEG audio (layer I, II or III)
Comments :
Title=#3 (for Jackson Pollack)
Artist=A Produce
Album=Black Sands, Disc 1 - The Map
Tracknumber=03/09
Year=2005
Genre=Experimental / Ambient
Discnumber=1/3



[ Hidden Text ]