Help - Search - Members - Calendar
Full Version: Terco - Demo [demo] (2016)
Metal Area - Extreme Music Portal > Releases Area / Релизы > New Releases > Unformat R:
KINO


*Artist: Terco
*Album: Demo [demo]
*Year: 2016
*Genre: Powerviolence/Hardcore Punk
*Country: Colombia
*Format: mp3@CBR320kbps
*Size: 16MB

Tracklist:
1. La Ley Del Talión 02:20
2. Lo difícil De Ser Mujer 01:12
3. Agujas 01:05
4. Podros 01:30
5. Catarsis 00:24
******************************
Total playing time: 6:31



Technical info

Input File: Terco - Demo S-T - 01 La Ley Del Tali?n.mp3
Channels : 2
Sample Rate : 44100
Precision : 16-bit
Duration : 00:02:20.71 = 6205223 samples = 10553.1 CDDA sectors
File Size : 5.81M
Bit Rate : 330k
Sample Encoding: MPEG audio (layer I, II or III)
Comments :
Title=La Ley Del TaliГіn
Artist=Terco
Album=Demo S/T
Tracknumber=1
Year=2016



[ Hidden Text ]
DarkHorde
По графику - транскод, но на кампе группы они предлагают скачать во всех форматах (бесплатно). Не думаю что сама группа будет постить собственный релиз как транскод. Похоже это качество записи такое.
This is a "lo-fi" version of our main content. To view the full version with more information, formatting and images, please click here.
Invision Power Board © 2001-2020 Invision Power Services, Inc.