Help - Search - Members - Calendar
Full Version: Drescher - Steinfeld (2016)
Metal Area - Extreme Music Portal > Releases Area / Релизы > Archive
Samaritianin


*Artist: Drescher
*Album: Steinfeld
*Year: 2016
*Genre: Melodic Death/Thrash/Folk Metal
*Country: Austria
*Format: mp3@CBR320kbps
*Size: 102MB

Tracklist:
01. A bissl Glick
02. Adrenalin
03. Unten
04. Guade oide Zeit
05. Regen
06. Es reignt Bluat
07. Olles ok
08. Endlich leben
09. I will di ausbliatn sehn
10. Der Held
11. Die Marie (Bonus Track)
12. Vater vergib mir (Bonus Track)
******************************
Total playing time: 48:28



Technical info

Input File: 04. Guade oide Zeit.mp3
Channels : 2
Sample Rate : 44100
Precision : 16-bit
Duration : 00:03:44.42 = 9896746 samples = 16831.2 CDDA sectors
File Size : 9.08M
Bit Rate : 324k
Sample Encoding: MPEG audio (layer I, II or III)
Comments :
Title=Guade oide Zeit
Artist=Drescher
Album=Steinfeld
Tracknumber=4
Year=2016



[ Hidden Text ]
romanov
[ Hidden Text ]
AHBAnep

УГ
aesteticvice
ЦИТАТА(AHBAnep @ Nov 18 2016, 09:02:42) *
УГ

ну когда-то должна была появится группа с названием дрищер 1488.gif или д-р-о-чер, что-то усредненное?
по сути типичный дойче условно-индастриал/фолк метал, роль волынки тут переложена на гармонь, дэта конечно нет, а вот трэш местами мелькает между припевами, впрочем трэки разные как принято в данном направлении, только припевы стандартные
Ingvar
104 mb/320 kbps
[ Hidden Text ]
orloff2000
Thank you very much, but unfortunately the link is no longer available 6.gif
Can anyone help?
satanist666


Залито на Mega - 145.6Mb в 320kbps!!!:
+ Bonus Tracks:
11. Die Marie (Bonus Track)
12. Vater Vergib Mir (Bonus Track)
13. Geheiligt Werde Dein Name (''Hallowed Be Thy Name'' Iron Maiden Cover) (Bonus Track)
14. Bluternte (First Blood DJ Schmolli Bluternte-Remix) (Bonus Track)
15. Rock Me Amadeus (Falco Cover) (Bonus Track)
16. Ass In Pik (''Ace Of Space'' Motörhead Cover) (Bonus Track)
17. Olles Schwoarz (Bonus Track)
(192kbps)
[ Hidden Text ]
metaler.gif

This is a "lo-fi" version of our main content. To view the full version with more information, formatting and images, please click here.
Invision Power Board © 2001-2021 Invision Power Services, Inc.