Help - Search - Members - Calendar
Full Version: Hell's Punch - Burn It Down (2016)
Metal Area - Extreme Music Portal > Releases Area / Релизы > Archive
necroscum


*Artist: Hell's Punch
*Album: Burn It Down
*Year: 2016
*Genre: Thrash Metal
*Country: Brazil
*Format: mp3@CBR320kbps
*Size: 138MB

Tracklist:
01. Hate
02. War Starts Now
03. God Against God
04. Kill Your Politician
05. For What's Right
06. A Stupid Fucking Nation
07. 7 Minutes About Death
08. Hardcore Life
09. Integrity
10. Customized Fetus
11. Burn It Down
12. On Your Knees
13. Freedom Is Betting In A Slow Death
14. Ato Facultaivo
15. Filhos Do Mundo
******************************
Total playing time: 57:24



Technical info

Input File: 02. War Starts Now.mp3
Channels : 2
Sample Rate : 44100
Precision : 16-bit
Duration : 00:03:57.90 = 10491214 samples = 17842.2 CDDA sectors
File Size : 9.97M
Bit Rate : 335k
Sample Encoding: MPEG audio (layer I, II or III)
Comments :
Title=War Starts Now
Artist=Hell's Punch
Album=Burn it Down
Tracknumber=02
Year=2016



[ Hidden Text ]
DarkHorde
Genuine Thrashiac
[ Hidden Text ]
Andrew
К сожалению, но уж очень топорно-примитивно выполненно 6.gif
This is a "lo-fi" version of our main content. To view the full version with more information, formatting and images, please click here.
Invision Power Board © 2001-2022 Invision Power Services, Inc.