Help - Search - Members - Calendar
Full Version: Livid - Excuse For Violence (2016)
Metal Area - Extreme Music Portal > Releases Area / Релизы > New Releases > Unformat R:
KINO


*Artist: Livid
*Album: Excuse For Violence
*Year: 2016
*Genre: Beatdown Hardcore/Powerviolence
*Country: United States
*Format: mp3@CBR320kbps
*Size: 38MB

Tracklist:
1. Scum 02:10
2. Loathe 01:35
3. Pray for Death 02:08
4. Abuse 01:32
5. Suffer 02:34
6. Rope Around My Neck 03:07
7. Outro 01:58
******************************
Total playing time: 15:04



Technical info

Input File: Livid - Excuse for Violence - 01 Scum.mp3
Channels : 2
Sample Rate : 44100
Precision : 16-bit
Duration : 00:02:10.60 = 5759372 samples = 9794.85 CDDA sectors
File Size : 5.39M
Bit Rate : 330k
Sample Encoding: MPEG audio (layer I, II or III)
Comments :
Title=Scum
Artist=Livid
Album=Excuse for Violence
Tracknumber=1
Year=2016



[ Hidden Text ]
KINO
[ Hidden Text ]
This is a "lo-fi" version of our main content. To view the full version with more information, formatting and images, please click here.
Invision Power Board © 2001-2020 Invision Power Services, Inc.