Help - Search - Members - Calendar
Full Version: Psychedelic Witchcraft - Magick Rites And Spells (2017)
Metal Area - Extreme Music Portal > Releases Area / Релизы > New Releases > Unformat R:
paganheart


*Artist: Psychedelic Witchcraft
*Album: Magick Rites And Spells
*Year: 2017
*Genre: Hard Psychedelic Rock/Female Vocal
*Country: Italy
*Format: mp3@CBR320kbps
*Size: 82MB

Tracklist:
01. Come a Little Closer
02. Godzilla
03. Set Me Free
04. Wicked DreamВ
05. The Dark Lord
06. Angela
07. Lying on Iron
08. Black Magic ManВ
09. Slave of Grief
******************************
Total playing time: 39:00

Preview 1

Technical info

Input File: 01. Come a Little Closer.mp3
Channels : 2
Sample Rate : 44100
Precision : 16-bit
Duration : 00:04:11.85 = 11106453 samples = 18888.5 CDDA sectors
File Size : 10.2M
Bit Rate : 325k
Sample Encoding: MPEG audio (layer I, II or III)
Comments :
Title=Come a Little Closer
Artist=Psychedelic Witchcraft
Album=Magick Rites and Spells
Tracknumber=1
Year=2017
Genre=Rock
Discnumber=1



[ Hidden Text ]
Diflock
nagval
На альбоме есть пару отличных вещей, а так альбом средненький
Black Cat
Ну это просто нереализованный материал, оставшийся после распада. Глупо ожидать чего-то на уровне дебютника.
Но все равно, хорошо, что выпустили.
avkruchinin
Жаль, что разбелажались.
Останки будем слушать)
Leshiy666
Группа возродилась опять...
4 ноября выпустили второй полноформатник.
This is a "lo-fi" version of our main content. To view the full version with more information, formatting and images, please click here.
Invision Power Board © 2001-2019 Invision Power Services, Inc.