Help - Search - Members - Calendar
Full Version: Cranial - Dark Towers, Bright Lights (2017)
Metal Area - Extreme Music Portal > Releases Area / Релизы > New Releases > Lossless
necroscum


*Artist: Cranial
*Album: Dark Towers, Bright Lights
*Year: 2017
*Genre: Atmospheric Sludge/Doom Metal
*Country: Germany
*Format: mp3@CBR320kbps
*Size: 106MB

Tracklist:
01. Dark 11:24
02. Towers 10:45
03. Bright 11:43
04. Lights 10:54
******************************
Total playing time: 44:46




Technical info

Input File: 02. Towers.mp3
Channels : 2
Sample Rate : 44100
Precision : 16-bit
Duration : 00:10:46.02 = 28489306 samples = 48451.2 CDDA sectors
File Size : 26.1M
Bit Rate : 324k
Sample Encoding: MPEG audio (layer I, II or III)
Comments :
Title=Towers
Artist=Cranial
Album=Dark Towers, Bright Lights
Tracknumber=2
Year=2017
Discnumber=1/1



[ Hidden Text ]
bodyc
alternative hardcore post-hardcore post-metal screamo
- ёклмн, разницу в стилях хоть чуть-чуть делай ... look.gif
Moody17
ровнячком, со стилем всё впорядке
orloff2000
Thank you very much, but unfortunately the link is no longer available 6.gif
Can anyone help?
Borderline1991
[ Hidden Text ][ Hidden Text ]
This is a "lo-fi" version of our main content. To view the full version with more information, formatting and images, please click here.
Invision Power Board © 2001-2021 Invision Power Services, Inc.