Help - Search - Members - Calendar
Full Version: Sunlight's Bane - The Blackest Volume (Like All The Earth Was Buried) (2017)
Metal Area - Extreme Music Portal > Releases Area / Релизы > Archive
aesteticvice


*Artist: Sunlight's Bane
*Album: The Blackest Volume (Like All The Earth Was Buried)
*Year: 2017
*Genre: Black Metal/Grindcore/Sludge
*Country: United States
*Format: mp3@CBR320kbps
*Size: 115MB

Tracklist:
01. Praise the Venom Shield
02. Begrudging Soul
03. From Heaven Wept
04. Cursed Diminished Years
05. I'm the Cold Harsh Wispers in Hell
06. Dance of Thorns
07. The Blessed Ivory Tongue
08. No Taste More Bitter
09. With Fear, This Love Is Given
10. Came No Dawn
11. To Whom I Await
******************************
Total playing time: 53:47




Extended info
Midwestern grinding death painting an atmosphere of horror and visciousness across the necks of listeners.



Technical info

Input File: 02. Begrudging Soul.mp3
Channels : 2
Sample Rate : 44100
Precision : 16-bit
Duration : 00:04:19.50 = 11443994 samples = 19462.6 CDDA sectors
File Size : 10.4M
Bit Rate : 320k
Sample Encoding: MPEG audio (layer I, II or III)
Comments :
Title=Begrudging Soul
Artist=Sunlights Bane
Album=The Blackest Volume
Tracknumber=02/11
Year=2017
Discnumber=1/1



[ Hidden Text ]
mistermullet
can anyone re-up please? 9.gif
aesteticvice
MIRROR
[ Hidden Text ]
dailydindu666
Anyone have a 320 re-up?
This is a "lo-fi" version of our main content. To view the full version with more information, formatting and images, please click here.
Invision Power Board © 2001-2024 Invision Power Services, Inc.