Help - Search - Members - Calendar
Full Version: Dool - Here Now, There Then (2017)
Metal Area - Extreme Music Portal > Releases Area / Релизы > New Releases > Unformat R:
Velmi


*Artist: Dool
*Album: Here Now, There Then
*Year: 2017
*Genre: Psychedelic Occult Rock
*Country: Netherlands
*Format: mp3@CBR320kbps
*Size: 117MB

Tracklist:
1. Vantablack 10:02
2. Golden Serpents 05:48
3. Words On Paper 04:40
4. In Her Darkest Hour 06:08
5. Oweynagat 06:53
6. The Alpha 06:47
7. The Death Of Love 04:43
8. She Goat 04:54
******************************
Total playing time: 49:55



Extended info
In vein of The Devil's Blood


Technical info

Input File: 02. Golden Serpents.mp3
Channels : 2
Sample Rate : 44100
Precision : 16-bit
Duration : 00:05:48.61 = 15373701 samples = 26145.8 CDDA sectors
File Size : 14.1M
Bit Rate : 323k
Sample Encoding: MPEG audio (layer I, II or III)
Comments :
Title=Golden Serpents
Artist=Dool
Album=Here Now, There Then
Tracknumber=02/08
Year=2017
Genre=Psychedelic / Occult Rock



[ Hidden Text ]
whitebros
красота!
клипец
Dragonballz
Отлично!
The Devil's Blood Kvlt! metaler.gif
templ
а неплохо.
спекуляция, конечно, но вполне слушабельная.
Whitefish
Нифига себе я нашел коллективчик. Если бы не рассылка о новой EP, не узнал бы кто такие.
This is a "lo-fi" version of our main content. To view the full version with more information, formatting and images, please click here.
Invision Power Board © 2001-2019 Invision Power Services, Inc.