Help - Search - Members - Calendar
Full Version: Norrsköld - Withering Virtue - The Second Chapter (2017)
Metal Area - Extreme Music Portal > Releases Area / Релизы > Archive
necroscum


*Artist: Norrsköld
*Album: Withering Virtue - The Second Chapter
*Year: 2017
*Genre: Melodic Black/Folk Metal
*Country: Sweden
*Format: mp3@CBR320kbps
*Size: 94MB

Tracklist:
01. Everfrozen
02. Feed the Ground
03. A Fiddler's Trance
04. Awaken the Dead
05. Fallen One
06. Impurity
07. Stormgryning
08. Cursed and Vicious
09. Shadows
10. Rite of Aeons
11. Malice
12. Månsorg
******************************
Total playing time: 43:21



Technical info

Input File: 02-norrskoeld-feed_the_ground-c5823733.mp3
Channels : 2
Sample Rate : 44100
Precision : 16-bit
Duration : 00:04:28.57 = 11843805 samples = 20142.5 CDDA sectors
File Size : 11.0M
Bit Rate : 327k
Sample Encoding: MPEG audio (layer I, II or III)
Comments :
Title=Feed The Ground
Artist=Norrskoeld
Album=Withering Virtue-The Second Chapter
Tracknumber=2/12
Year=2017
Genre=9



[ Hidden Text ]
sperminator
scene rip, как пишут... вот ещё зеркало, из сети:
[ Hidden Text ]
DenisKov

Пока только треть прослушал, неплохо, на разик прогоню.
Andrew
Angeldemon617
mp3@CBR320kbps
http://mortuusinsomnis06.blogspot.com[ Hidden Text ]
This is a "lo-fi" version of our main content. To view the full version with more information, formatting and images, please click here.
Invision Power Board © 2001-2021 Invision Power Services, Inc.