Help - Search - Members - Calendar
Full Version: Ice Giant - Ice Giant (2017)
Metal Area - Extreme Music Portal > Releases Area / Релизы > Archive
necroscum


*Artist: Ice Giant
*Album: Ice Giant
*Year: 2017
*Genre: Heavy/Power/Thrash Metal
*Country: United States
*Format: mp3@CBR320kbps
*Size: 74MB

Tracklist:
01. At Tyranny's End 02:29
02. Dimension Of The Damned 04:09
03. The Tale Of Rowanam 05:50
04. Wrath Of Justice 03:52
05. Obscuring Cloud 05:10
06. The Tower 06:21
07. The Sentinel 06:06
******************************
Total playing time: 33:57




Technical info

Input File: 02-ice_giant-dimension_of_the_damned-659807ed.mp3
Channels : 2
Sample Rate : 44100
Precision : 16-bit
Duration : 00:04:09.68 = 11010800 samples = 18725.9 CDDA sectors
File Size : 10.3M
Bit Rate : 331k
Sample Encoding: MPEG audio (layer I, II or III)
Comments :
Title=Dimension of the Damned
Artist=Ice Giant
Album=Ice Giant
Tracknumber=2/7
Year=2017
Genre=9



[ Hidden Text ]
Shadowman
Клип, конечно, сердитый...
hammer
ЦИТАТА(Shadowman @ Apr 29 2017, 19:36:51) *
Клип, конечно, сердитый...

А говорят что только у нас умеют говно снимать. 1488.gif
Genuine Thrashiac
Что не так с клипом?

По музыке - вокалист ханскюршит слегка, музыка всё же чуток далека от BG.
Olrak
ЦИТАТА(Shadowman @ Apr 29 2017, 20:36:51) *
Клип, конечно, сердитый...

Мля, хреначат прямо как Блинды! 1488.gif
metadeat
EP же судя по трубе... Запись конечно ужОс просто. Каждая песТня в разном стиле записана от павер и хэви/трэша до мдм/викинга . Ищут ребята, но что в итоге получится - хз ...
hammer
ЦИТАТА(Genuine Thrashiac @ Apr 29 2017, 23:12:00) *
Что не так с клипом?

Не , ну кому и кобыла невеста. Кто же спорит. 1488.gif
avkruchinin
ЦИТАТА(hammer @ Apr 30 2017, 06:51:43) *
Не , ну кому и кобыла невеста. Кто же спорит. 1488.gif

Genuine Thras... ты зачем на кобыле женился? crazy.gif
Genuine Thrashiac
avkruchinin, напоминаю - я в разводе.
А если и был женат - то была львица.
avkruchinin
ЦИТАТА(Genuine Thrashiac @ Apr 30 2017, 08:30:20) *
avkruchinin, напоминаю - я в разводе.
А если и был женат - то была львица.

А кобыла здесь тогда причём? 1488.gif
kimkayoung
1. 320 kbps from the web:
[ Hidden Text ]

2. Each track previewable or downloadable at 320 kbps for free (if you want to preview or miss some tracks):
[ Hidden Text ]

3. Preview (or purchase):

[All credits go to the band and the posters].
This is a "lo-fi" version of our main content. To view the full version with more information, formatting and images, please click here.
Invision Power Board © 2001-2024 Invision Power Services, Inc.