Help - Search - Members - Calendar
Full Version: Rammstein - Paris [live] (2017)
Metal Area - Extreme Music Portal > Releases Area / Релизы > New Releases > Unformat R:
fylopaloma


*Artist: Rammstein
*Album: Paris [live]
*Year: 2017
*Genre: Alternative Rock/Industrial
*Country: Germany
*Format: mp3@CBR320kbps
*Size: 276MB

Tracklist:
1 Intro
2 Sonne
3 Wollt Ihr Das Bett In Flammen Sehen
4 Keine Lust
5 Sehnsucht
6 Asche Zu Asche
7 Feuer Frei!
8 Mutter
9 Mein Teil
10 Du Riechst So Gut
11 Links 2-3-4
12 Du Hast
13 Haifisch
14 Bück Dich
15 Mann Gegen Mann
16 Ohne Dich
17 Mein Herz Brennt
18 Amerika
19 Ich Will
20 Engel
21 Pussy
22 Frühling In Paris
******************************
Total playing time: 1:57:20




Technical info

Input File: 04. KEINE LUST (LIVE).mp3
Channels : 2
Sample Rate : 44100
Precision : 16-bit
Duration : 00:04:08.34 = 10951926 samples = 18625.7 CDDA sectors
File Size : 10.5M
Bit Rate : 339k
Sample Encoding: MPEG audio (layer I, II or III)
Comments :
Title=KEINE LUST (LIVE)
Artist=Rammstein
Album=Paris
Tracknumber=04
Year=2017
Genre=Metal



[ Hidden Text ]
Polzovatel
Такие вещи лучше смотреть, если нравится, а слушать - скорее для ярых фанов или тех, кто был на том концерте.
This is a "lo-fi" version of our main content. To view the full version with more information, formatting and images, please click here.
Invision Power Board © 2001-2019 Invision Power Services, Inc.