Help - Search - Members - Calendar
Full Version: The Birthday Massacre - Under Your Spell (2017)
Metal Area - Extreme Music Portal > Releases Area / Релизы > New Releases > Unformat R:
Metropolis


*Artist: The Birthday Massacre
*Album: Under Your Spell
*Year: 2017
*Genre: Industrial/Synth Rock
*Country: Canada
*Format: mp3@CBR320kbps
*Size: 97MB

Tracklist:
1.One 3:35
2.Under Your Spell 4:31
3.All Of Nothing 3:31
4.Without You 4:32
5.Counterpane 3:32
6.Unkind 3:56
7.Games 3:40
8.Hex 3:37
9.No Tomorrow 3:20
10.The Lowest Low 3:54
11.Endless 3:14
******************************
Total playing time: 41:22



Extended info


Technical info

Input File: 01. One.mp3
Channels : 2
Sample Rate : 44100
Precision : 16-bit
Duration : 00:03:34.73 = 9469417 samples = 16104.5 CDDA sectors
File Size : 8.86M
Bit Rate : 330k
Sample Encoding: MPEG audio (layer I, II or III)
Comments :
Title=One
Artist=The Birthday Massacre
Album=Under Your Spell
Tracknumber=1
Year=2017
Genre=Gothic Rock



[ Hidden Text ]
garmonbozia
хороший синтрок и танцы 80 - х.
sethurius
Ргост не качает, дайте др. обменник,братцы! По превью дико круто, например! Я бы женился на ней, если бы она каждый вечер так пела
6666666
Да, превью умеренно-сексуальное.
garmonbozia
[ Hidden Text ]
sethurius
Короч, крутая хрень, напрочь, это же почти депеши 93
Metropolis
ЦИТАТА(sethurius @ Jun 5 2017, 01:19:29) *
Короч, крутая хрень, напрочь, это же почти депеши 93


Вы раньше не слышали их что ли? Мне кажется Walking with Strangers'07 самый лучший их альбом.
DenisKov
Counterpane прикольный трек, на этом всё.
скептик
от чего тут кипятком писают не понял 13.gif . вокал таки приятный,но музыка так себе. как по мне, то Kosheen на порядок интересней.
garmonbozia
ЦИТАТА(скептик @ 8th June 2017 - 09:52:23) *
Kosheen

Ждем еще подобных примеров в студию, ахаха.
Polzovatel
Чувствуется влияние futurepop в альбоме, но это ничуть не портит его. Слушается легко и не беден на запоминающиеся моменты. Уже было прослушано далеко не один раз и ничуть не надоело, как, в прочем, и прошлое их творчество.
Snowblind
Самый вялый альбом в дискографии, подустали ребятишки. Или слишком подросли.
garmonbozia
как всегда с первой песни нравится, до сих пор гоняю(не о том)
лиришна романтишна
vosmidesijatye
ЦИТАТА(скептик @ Jun 8 2017, 08:52:23) *
вокал таки приятный,но музыка так себе. как по мне, то Kosheen на порядок интересней.


15.gif 1488.gif
This is a "lo-fi" version of our main content. To view the full version with more information, formatting and images, please click here.
Invision Power Board © 2001-2019 Invision Power Services, Inc.