Help - Search - Members - Calendar
Full Version: Sweet Torment - Sweet Torment [demo] (2014)
Metal Area - Extreme Music Portal > Releases Area / Релизы > Archive
smysl


*Artist: Sweet Torment
*Album: Sweet Torment [demo]
*Year: 2014
*Genre: Heavy Metal/Punk
*Country: Canada
*Format: mp3@CBR320kbps
*Size: 34MB

Tracklist:
1. Cry from the Catacombs 02:37
2. Seventh Trumpet (Third Woe) 03:08
3. Dream of Hell 01:40
4. Black Rites 03:36
******************************
Total playing time: 11:01



Extended info
Cassette, Hard and Heavy Records


Technical info

Input File: 01 Cry From The Catacombs.mp3
Channels : 2
Sample Rate : 44100
Precision : 16-bit
Duration : 00:02:37.64 = 6951924 samples = 11823 CDDA sectors
File Size : 6.45M
Bit Rate : 327k
Sample Encoding: MPEG audio (layer I, II or III)
Comments :
Title=Cry From The Catacombs
Artist=Sweet Torment
Album=Demo
Tracknumber=1
Year=2014
Genre=Metal



[ Hidden Text ]
sacramentary
reupload please
Moldavite
[ Hidden Text ]
This is a "lo-fi" version of our main content. To view the full version with more information, formatting and images, please click here.
Invision Power Board © 2001-2021 Invision Power Services, Inc.