Help - Search - Members - Calendar
Full Version: Hidden Orchestra - Dawn Chorus (2017)
Metal Area - Extreme Music Portal > Releases Area / Релизы > New Releases > Unformat R:
gikaki


*Artist: Hidden Orchestra
*Album: Dawn Chorus
*Year: 2017
*Genre: Atmospheric/Cinematic Jazz
*Country: United Kingdom
*Format: mp3@CBR320kbps
*Size: 135MB

Tracklist:
01. First Light (03:39)
02. Western Isles (06:13)
03. Still (06:55)
04. The Lizard (05:51)
05. Long Orchard (04:57)
06. Alyth (06:32)
07. Wingbeats (11:59)
08. Serpentine (01:16)
09. Stone (06:08)
10. East London Street (11:13)
******************************
Total playing time: 1:04:43

Extended info
Hidden Orchestra is the solo studio project of multi-instrumentalist composer/producer Joe Acheson, whose albums and live shows feature a wide variety of guest musicians from all kinds of musical backgrounds.


Technical info

Input File: 01 - First Light.mp3
Channels : 2
Sample Rate : 44100
Precision : 16-bit
Duration : 00:03:39.74 = 9690490 samples = 16480.4 CDDA sectors
File Size : 8.89M
Bit Rate : 324k
Sample Encoding: MPEG audio (layer I, II or III)
Comments :
Title=First Light
Artist=Hidden Orchestra
Album=Dawn Chorus
Tracknumber=1/10
Year=2017
Genre=52



[ Hidden Text ]
v.v.m
Полный альбом на youtube
[ Hidden Text ]
This is a "lo-fi" version of our main content. To view the full version with more information, formatting and images, please click here.
Invision Power Board © 2001-2022 Invision Power Services, Inc.