Help - Search - Members - Calendar
Full Version: Pale Existence - Demo [demo] (1994)
Metal Area - Extreme Music Portal > Releases Area / Релизы > New Releases > Low Bitrate
curwen


*Artist: Pale Existence
*Album: Demo [demo]
*Year: 1994
*Genre: Death/Doom Metal
*Country: United States
*Format: mp3@CBR320kbps
*Size: 48MB

Tracklist:
1.Dismal Paths 05:08
2.Dark Tranquility 05:43
3.Sickness 00:49
4.Impure 03:13
5.Subconscious Weeping 04:26
6.Visions of the Disconsolate 00:58
******************************
Total playing time: 20:17

Extended info
FLAC can be bought straight from the band's bassist bandcamp for 1USD here:


Technical info

Input File: 03 Sickness.mp3
Channels : 2
Sample Rate : 44100
Precision : 16-bit
Duration : 00:00:49.59 = 2186831 samples = 3719.1 CDDA sectors
File Size : 2.08M
Bit Rate : 336k
Sample Encoding: MPEG audio (layer I, II or III)
Comments :
Title=Sickness
Artist=Pale Existence
Album=1st Demo (1994 cassette)
Tracknumber=3
Year=2017
Genre=Death/Doom Metal



[ Hidden Text ]
Proteus_666
На архивах это демо датируется 1995 годом и называется "Dark Tranquility"...
Proteus_666
New link:
[ Hidden Text ]
This is a "lo-fi" version of our main content. To view the full version with more information, formatting and images, please click here.
Invision Power Board © 2001-2023 Invision Power Services, Inc.