Help - Search - Members - Calendar
Full Version: Deep Purple - Johnny's Band [single] (2017)
Metal Area - Extreme Music Portal > Releases Area / Релизы > New Releases > Unformat R:
Necrokilldozer


*Artist: Deep Purple
*Album: Johnny's Band [single]
*Year: 2017
*Genre: Heavy Metal/Hard Rock
*Country: United Kingdom
*Format: mp3@CBR320kbps
*Size: 58MB

Tracklist:
1. Johnny's Band
2. In and Out Jam
3. Strange Kind of Woman [Live]
4. The Mule [Live]
5. Hell to Pay [Live]
******************************
Total playing time: 24:04



Extended info
Line - up:

Ian Paice - Drums, Percussion (ex-Gary Moore, ex-Green Bullfrog, ex-Paice, Ashton & Lord, ex-The Maze, ex-The MI 5, ex-The Shindigs, ex-Whitesnake)
Roger Glover - Bass, Vocals (Roger Glover, ex-Rainbow, ex-David Coverdale Band, ex-Episode Six, ex-Gillan & Glover, ex-Marlon)
Ian Gillan - Vocals (ex-WhoCares, Ian Gillan Band, ex-Black Sabbath, ex-Episode Six, ex-Garth Rockett and the Moonshiners, ex-Gillan, ex-Gillan & Glover, ex-The Javelins)
Steve Morse - Guitars, Vocals (Angelfire, Dixie Dregs, Flying Colors, Steve Morse Band, ex-Kansas, ex-Living Loud)
Don Airey - Keyboards, Organ (Don Airey, ex-Empire, ex-Ozzy Osbourne, ex-Rainbow, ex-The Cage, ex-Dario Mollo's Crossbones (live), ex-Divlje Jagode (live), ex-Air Pavilion, ex-Andrew Lloyd Webber, ex-Colosseum II, ex-Cozy Powell, ex-Gary Moore, ex-Hammer, ex-Jethro Tull, ex-Living Loud, ex-Michael Schenker Group, ex-Quatermass, ex-Ten, ex-The Company of Snakes, ex-Wishbone Ash, ex-Graham Bonnet (live), ex-Micky Moody (live), ex-The Snakes (live), ex-Uli Jon Roth (live))


Technical info

Input File: 04. The Mule (Live in Gaevle).mp3
Channels : 2
Sample Rate : 44100
Precision : 16-bit
Duration : 00:05:48.01 = 15347329 samples = 26100.9 CDDA sectors
File Size : 14.0M
Bit Rate : 321k
Sample Encoding: MPEG audio (layer I, II or III)
Comments :
Title=The Mule (Live in Gaevle)
Artist=Deep Purple
Album=Johnny's Band (Sinnngle)
Tracknumber=4
Year=2017
Genre=Heavy Metal / Hard Rock



[ Hidden Text ]
shial
да ладно вам, Дип Пёппл и ни одного коммента, а лайков кот наплакал? ТруЪ же! look.gif
vosmidesijatye
ЦИТАТА(shial @ Aug 6 2017, 22:27:00) *
да ладно вам, Дип Пёппл и ни одного коммента, а лайков кот наплакал? ТруЪ же! look.gif


Ну так ДП не шыпко интересный материал выпускают последние н-ное кол-во лет. вот последний крутой у них был Абандон 98 го.
sukiyakixtreme
Большое спасибо!

19.gif
babanguida
this is not Deep Purple
cesar
Один трек с альбома. Джем с репетиции и три концертных трека. Ничего особенного.
vosmidesijatye
@320

[ Hidden Text ]
This is a "lo-fi" version of our main content. To view the full version with more information, formatting and images, please click here.
Invision Power Board © 2001-2019 Invision Power Services, Inc.