Help - Search - Members - Calendar
Full Version: Deadlife - Where Life Ends (2017)
Metal Area - Extreme Music Portal > Releases Area / Релизы > Archive
rewa


*Artist: Deadlife
*Album: Where Life Ends
*Year: 2017
*Genre: Depressive Black Metal
*Country: Sweden
*Format: mp3@CBR320kbps
*Size: 102MB

Tracklist:
1. It will only get worse 05:52
2. Please don't save me 06:42
3. The wounds that you gave 06:51
4. I was almost human 06:26
5. Worms 04:03
6. Clarity of thought 01:10
7. Where life ends 07:14
8. The depth 01:39
9. Wasted away 04:19
******************************
Total playing time: 44:16



Extended info
Special for Metalarea.org


Technical info

Input File: Deadlife - Where life ends (Album) - 01 It will only get worse.mp3
Channels : 2
Sample Rate : 44100
Precision : 16-bit
Duration : 00:05:52.22 = 15532682 samples = 26416.1 CDDA sectors
File Size : 14.1M
Bit Rate : 321k
Sample Encoding: MPEG audio (layer I, II or III)
Comments :
Title=It will only get worse
Artist=Deadlife
Album=Where life ends (Album)
Tracknumber=1
Year=2017



[ Hidden Text ]
KVRT
ниочём... 21.gif
bc_
*188 Deadlife - Where life ends (Full-Album) 2017 https://youtu.be/fZQYWO8LmAQ

Ещё одна порция шведской депры, общее настроение и темп приближаются порой к фунерал думу, чувак не сбавляет оборотов, приближаясь по продуктивности к итальянцу Вардан.. Неплохо, но чувствуется недостаток музыкальных идей.. Самая интересная композиция здесь - 07. Where Life Ends.
This is a "lo-fi" version of our main content. To view the full version with more information, formatting and images, please click here.
Invision Power Board © 2001-2021 Invision Power Services, Inc.