Help - Search - Members - Calendar
Full Version: Nasgûl - Ash Nazg Durbatulûk... [demo] (1996)
Metal Area - Extreme Music Portal > Releases Area / Релизы > New Releases > Unformat R:
smysl


*Artist: Nasgûl
*Album: Ash Nazg Durbatulûk... [demo]
*Year: 1996
*Genre: Dungeon Synth/Medieval
*Country: Germany
*Format: mp3@CBR320kbps
*Size: 61MB

Tracklist:
1.Intro 01:46
2.Ritt der Rohirrim - Storming Gandalf 05:17
3.Boromirs Begräbnis 06:46
4.Orkmarsch 03:53
5.In den Hallen von Moria 03:59
6.Vergangenheit 02:28
7.Outro 03:06
******************************
Total playing time: 27:15



Technical info

Input File: 02 Ritt der Rohirrim - Storming Gandalf.mp3
Channels : 2
Sample Rate : 44100
Precision : 16-bit
Duration : 00:05:15.98 = 13934850 samples = 23698.7 CDDA sectors
File Size : 12.8M
Bit Rate : 324k
Sample Encoding: MPEG audio (layer I, II or III)
Comments :
Title=Ritt Der Rohirrim - Storming Gandalf
Artist=NasgГ»l
Album=Ash Nazg DurbatulГ»k...
Tracknumber=2
Year=1996
Genre=Dungeon Synth



[ Hidden Text ]
Synthaeon
Еще как формат
Dreamtale
На БК чиптюн немношк.
This is a "lo-fi" version of our main content. To view the full version with more information, formatting and images, please click here.
Invision Power Board © 2001-2020 Invision Power Services, Inc.