Help - Search - Members - Calendar
Full Version: Godspeed You! Black Emperor - Luciferian Towers (2017)
Metal Area - Extreme Music Portal > Releases Area / Релизы > New Releases > Unformat R:
fylopaloma


*Artist: Godspeed You! Black Emperor
*Album: Luciferian Towers
*Year: 2017
*Genre: Post Rock
*Country: Canada
*Format: mp3@CBR320kbps
*Size: 101MB

Tracklist:
01. Undoing A Luciferian Tower 7:47
02. Bosses Hang 14:45
03. Fam / Famine 6:44
04. Anthem For No State 14:38
******************************
Total playing time: 43:54




Technical info

Input File: 03-Fam_Famine.mp3
Channels : 2
Sample Rate : 44100
Precision : 16-bit
Duration : 00:06:44.18 = 17824250 samples = 30313.4 CDDA sectors
File Size : 16.6M
Bit Rate : 328k
Sample Encoding: MPEG audio (layer I, II or III)
Comments :
Title=Fam_Famine
Artist=Godspeed You! Black Emperor
Album=Luciferian Towers
Tracknumber=03/4
Year=2017
Genre=Post Rock
Discnumber=1/1



[ Hidden Text ]
mittal
Хорош альбом.
vosmidesijatye
Вроде как культ
mittal
Культ не культ, во всяком случае - группа неординарная. Где ещё встретишь оркестровый пост-рок?
Ghostb
Последние релизы уже не так впечатляют.

ЦИТАТА(mittal @ Sep 20 2017, 17:55:56) *
Где ещё встретишь оркестровый пост-рок?

Mono, например.
Dreamtale
ЦИТАТА(mittal @ 20th September 2017 - 17:55:56) *
Где ещё встретишь оркестровый пост-рок?

Да много где на самом деле.

По сабжу: специально прослушал несколько раз. Что сказать? Классический GYBE последнего десятилетия. Однозначно - культ!
vosmidesijatye
Dreamtale настолько глухая запись?
nagval
Не понравилась эта пластинка
Dreamtale
ЦИТАТА(vosmidesijatye @ 21st September 2017 - 16:00:43) *
Dreamtale настолько глухая запись?

Глухая - в каком смысле?..
vosmidesijatye
ЦИТАТА(Dreamtale @ Sep 21 2017, 17:05:32) *
Глухая - в каком смысле?..


Это вопрос был про картинку в первом твоем посте smile1.gif
Dreamtale
ЦИТАТА(vosmidesijatye @ 21st September 2017 - 16:08:26) *
Это вопрос был про картинку в первом твоем посте

Лол, нет, нормальная запись, мем жы!
POMAHOB
ЦИТАТА(mittal @ 20th September 2017 - 17:55:56) *
Где ещё встретишь оркестровый пост-рок?

Тут прям оркестыр?
natrogrii
качает, впрочем как и всегда
p.s. спасибо
POMAHOB
Вот этими много лет заслушиваюсь, не оркестр, конечно, но впечатляют.
folker
The Slowest Runner бесспорно красавы! А вот сабж слишком эмбиентный получился - на завтыкать.
This is a "lo-fi" version of our main content. To view the full version with more information, formatting and images, please click here.
Invision Power Board © 2001-2019 Invision Power Services, Inc.