Help - Search - Members - Calendar
Full Version: Five The Hierophant - Over Phlegethon (2017)
Metal Area - Extreme Music Portal > Releases Area / Релизы > Archive
aesteticvice


*Artist: Five The Hierophant
*Album: Over Phlegethon
*Year: 2017
*Genre: Psychedelic/Avant-Garde Black Metal/Jazz
*Country: United Kingdom
*Format: mp3@CBR320kbps
*Size: 112MB

Tracklist:
01. Queen Over Phlegethon
02. Vampire
03. Seafarer
04. Der Geist Der Stets Verneint
05. Sepulchre
06. Omen Tree
******************************
Total playing time: 48:34




Extended info
Instrumental ritualistic soundscapes, a psychodelic fusion of black metal, jazz and post metal...


Technical info

Input File: 02 Vampire.mp3
Channels : 2
Sample Rate : 44100
Precision : 16-bit
Duration : 00:05:46.86 = 15296526 samples = 26014.5 CDDA sectors
File Size : 14.0M
Bit Rate : 324k
Sample Encoding: MPEG audio (layer I, II or III)
Comments :
Title=Vampire
Artist=Five The Hierophant
Album=Over Phlegethon
Tracknumber=2/6
Year=2017
Discnumber=1/1



[ Hidden Text ]
gena
Очень интересно. Не проходим мимо.
svartalf
вот это крутой трип
Dmitry1977
Залейте плиз!
aesteticvice
ЦИТАТА(Dmitry1977 @ Jan 13 2018, 14:01:25) *
Залейте плиз!

мирр
[ Hidden Text ]
VLADISLAV_V_K
mp3@320
[ Hidden Text ]
KKK1488
Друзья, перезалейте пожалуйста...
Xor
QUOTE(KKK1488 @ 3rd March 2021 - 13:36:00) *
Друзья, перезалейте пожалуйста...

Я скачал по ссылке из предыдущего поста, единственная живая[ Hidden Text ]
ent404
[ Hidden Text ]
EgoistI4
Думаю после мозговыносящего Through Aureate Void, интерес к первому альбому возрастет...
This is a "lo-fi" version of our main content. To view the full version with more information, formatting and images, please click here.
Invision Power Board © 2001-2021 Invision Power Services, Inc.