Help - Search - Members - Calendar
Full Version: Landfill - Assassins (1999)
Metal Area - Extreme Music Portal > Releases Area / Релизы > New Releases > Unformat R:
Anger


*Artist: Landfill
*Album: Assassins
*Year: 1999
*Genre: Industrial/Death Metal
*Country: United States
*Format: mp3@CBR320kbps
*Size: 84MB

Tracklist:
01. Entsetzen 02:34
02. Wound Treatment 04:07
03. A Time For Cleansing 05:38
04. Human Patterns 05:01
05. Assassins 05:34
06. Mind Trigger 04:28
07. Angst 02:56
08. Empty Of All Humanity 05:13
09. Depths Of Degradation 01:51
******************************
Total playing time: 37:22

Technical info

Input File: 05. Assassins.mp3
Channels : 2
Sample Rate : 44100
Precision : 16-bit
Duration : 00:05:33.64 = 14713700 samples = 25023.3 CDDA sectors
File Size : 13.3M
Bit Rate : 320k
Sample Encoding: MPEG audio (layer I, II or III)
Comments :
Title=Assassins
Artist=Landfill
Album=Assassins
Tracknumber=05
Year=1999
Genre=Industrial



[ Hidden Text ]
AHBAnep
Hell_Is_Here
ЦИТАТА
Country of origin:
United States
Location:
Vancouver, Washington
Myspace банды это подтверждает. look.gif
Anger
ЦИТАТА(Hell_Is_Here @ Sep 27 2017, 07:16:46) *
Myspace банды это подтверждает. look.gif


упс. прошу пардона 11.gif
Aresson
по-моему, никакого дэта тут нет. В целом сабж альбом уныл. Хз чем это может быть лучше какого-нибудь трёх аккордного блэка, который Ангер так не любит. А про нормальный блэк, так я вообще молчу.
Anger
ЦИТАТА(Aresson @ Nov 8 2017, 20:15:07) *
по-моему, никакого дэта тут нет. В целом сабж альбом уныл. Хз чем это может быть лучше какого-нибудь трёх аккордного блэка, который Ангер так не любит. А про нормальный блэк, так я вообще молчу.


тут EBM полно

я часто леплю левые тэги либо по ошибке (т.к. сам мало слушаю то, что заливаю) либо в отдельных случаях намеренно (чтобы попадало в формат по возможности)
Aresson
ЦИТАТА(Anger @ 8th November 2017 - 22:20:17) *
тут EBM полно

спорить не буду, так как не знаю, как оно выглядит 1488.gif
короче мне покаалось слишком однообразным. Вокал кстати, вполне блэковый тут true_black.gif
Doode23
Any chance of a re-up? It may not be as nice as their earlier material, but the completionist in me wants in on this smile4.gif
This is a "lo-fi" version of our main content. To view the full version with more information, formatting and images, please click here.
Invision Power Board © 2001-2019 Invision Power Services, Inc.