Help - Search - Members - Calendar
Full Version: St.Hood - The Age Of Unreason (2017)
Metal Area - Extreme Music Portal > Releases Area / Релизы > New Releases > Unformat R:
Samaritianin


*Artist: St.Hood
*Album: The Age Of Unreason
*Year: 2017
*Genre: Hardcore
*Country: Finland
*Format: mp3@CBR320kbps
*Size: 72MB

Tracklist:
01. Unbroken Line
02. No Excuses
03. Heart of a Lion
04. A Son of Man
05. Unfulfilled
06. A World Enslaved
07. Concept of Mercy
08. Code of Silence
09. The Age of Unreason
10. The Grip
11. End in Sight
******************************
Total playing time: 31:02

Extended info


Technical info

Input File: 04. A Son of Man.mp3
Channels : 2
Sample Rate : 44100
Precision : 16-bit
Duration : 00:04:02.57 = 10697425 samples = 18192.9 CDDA sectors
File Size : 9.79M
Bit Rate : 323k
Sample Encoding: MPEG audio (layer I, II or III)
Comments :
Title=A Son of Man
Artist=St.Hood
Album=The Age of Unreason
Tracknumber=4/11
Year=2017



[ Hidden Text ]
aesteticvice
crazy.gif в основном процентов на 90 среднетемповый хардкор, известные в финиколяндии хардкорщики, это третий альбом, слабая версия среднего Hatebreed
Hardcore band from Helsinki, Finland, founded in 2003
https://www.discogs.com/artist/1638376-St-Hood
Samaritianin
ЦИТАТА(aesteticvice @ 27th September 2017 - 19:45:30) *
в основном процентов на 90 среднетемповый хардкор, известные в финиколяндии хардкорщики

Ты же даже не то что не слушал альбом,а даже и не слышал о существовании этой группы
до сегодняшнего дня!
[ Hidden Text ]
[ Hidden Text ]
если бы они хардкор то их бы на архивах точно не было.
aesteticvice
ЦИТАТА(Samaritianin @ Sep 27 2017, 19:58:34) *
если бы они хардкор то их бы на архивах точно не было.

на архивы строчат каждый желающий, там и мортис есть 1488.gif https://www.metal-archives.com/bands/Mortiis/81 наверно группе лучше знать че они играют если на слух не слышно, ну и более-менее дискогс адекватен, там инфа идет с лейбла и из официальных источников
scrollbar

ЦИТАТА(Samaritianin @ 28th September 2017 - 01:58:34) *
Hidden text
метал архивы
если бы они хардкор то их бы на архивах точно не было.

Оуу..
aesteticvice, на этот раз я на твоей стороне
This is a "lo-fi" version of our main content. To view the full version with more information, formatting and images, please click here.
Invision Power Board © 2001-2019 Invision Power Services, Inc.