Help - Search - Members - Calendar
Full Version: Da-Sein - Death Is The Most Certain Possibility (2017)
Metal Area - Extreme Music Portal > Releases Area / Релизы > New Releases > Unformat R:
Haunting


*Artist: Da-Sein
*Album: Death Is The Most Certain Possibility
*Year: 2017
*Genre: Industrial/Minimal Synth
*Country: Spain
*Format: mp3@CBR320kbps
*Size: 101MB

Tracklist:
1. Spiteful 5:11
2. Jailbird 3:21
3. Dead Eyed Soul 6:12
4. Death Drive 2:25
5. You Are Obsolete 4:21
6. Black Arts 3:18
7. Cold Blooded Rush 3:11
8. Nosebleed 4:34
9. Evils 3:44
10. Ascension 3:10
11. Shake Your Heaven 4:57
******************************
Total playing time: 44:24




Technical info

Input File: 02 - Da-Sein - Jailbird.mp3
Channels : 2
Sample Rate : 44100
Precision : 16-bit
Duration : 00:03:21.77 = 8898189 samples = 15133 CDDA sectors
File Size : 8.07M
Bit Rate : 320k
Sample Encoding: MPEG audio (layer I, II or III)
Comments :
Title=Jailbird
Artist=Da-Sein
Album=Death Is The Most Certain Possibility
Tracknumber=02
Year=2017
Genre=Industrial/Minimal Synth



[ Hidden Text ]
garmonbozia
Отличный альбом кстати, даже немного жуткий.
Как раз музыка для сегодняшнего времени года, желтые опавшие листья, серость, пора упадка и гниения.
Йа проникся. Червивые людские души в большом червивом плоде существования.
mittal
Не верьте ему.
garmonbozia
ЦИТАТА(mittal @ 5th October 2017 - 00:35:50) *
Не верьте ему.

да всем пофиг.
vosmidesijatye
ЦИТАТА(mittal @ Oct 4 2017, 23:35:50) *
Не верьте ему.


Кому именно?
mittal
ЦИТАТА(vosmidesijatye @ 4th October 2017 - 22:41:56) *
Кому именно?

Никому. Кроме меня
templ
это по хайдеггеру?
This is a "lo-fi" version of our main content. To view the full version with more information, formatting and images, please click here.
Invision Power Board © 2001-2019 Invision Power Services, Inc.