Help - Search - Members - Calendar
Full Version: Portishead - Glory Times [best of/compilation] (1995)
Metal Area - Extreme Music Portal > Releases Area / Релизы > New Releases > Unformat R:
Black Cat


*Artist: Portishead
*Album: Glory Times [best of/compilation]
*Year: 1995
*Genre: Trip-Hop
*Country: United Kingdom
*Format: mp3@CBR320kbps
*Size: 99MB

Tracklist:
CD1:
01 "Sour Sour Times" – 4:07
02 "Lot More" – 4:21
03 "Sheared Times" – 4:17
04 "Airbus Reconstruction" – 5:08
05 "Theme from to Kill a Dead Man" – 4:25
CD2:
01 "Glory Box" (edit) – 3:35
02 "Glory Box" (Mudflap Mix) – 5:28
03 "Scorn" – 6:04
04 "Sheared Box" – 3:30
05 "Toy Box" – 5:43
******************************
Total playing time: 46:38

Technical info

Input File: 01 - Sour Sour Times.mp3
Channels : 2
Sample Rate : 44100
Precision : 16-bit
Duration : 00:04:06.18 = 10856670 samples = 18463.7 CDDA sectors
File Size : 9.85M
Bit Rate : 320k
Sample Encoding: MPEG audio (layer I, II or III)
Comments :
Title=Sour Sour Times
Artist=Portishead
Album=Glory Times (Compilation) (CD1)
Tracknumber=01
Year=1995
Genre=Trip-Hop



[ Hidden Text ]
Ghostb
Очень странный сборник, учитывая, что здесь нет такой вещи как Roads (кстати, ее каверили My Dying Bride, но получилось хуже оригинала), да и Glory Box представлена в двух каких-то странных версиях. Лучше, конечно, слушать альбомами, тем более, что у них их всего три) Дебют (особенно) и Third, в первую очередь. Ну и концертник в NY шикарен: раз
Просто крутой трек и видео: два
BigFallos
Великая группа.
vosmidesijatye
ЦИТАТА(BigFallos @ Oct 4 2017, 20:09:20) *
Великая группа.

1488.gif Как и Радиобашка какая нибудь наверное, да?

В чем же ее величие?
BigFallos
В том что васи вроде тебя её не слушают.
Black Cat
ЦИТАТА(Ghostb @ Oct 4 2017, 19:06:38) *
Очень странный сборник, учитывая, что здесь нет такой вещи как Roads

Ну так это не зе бест, а сборник бисайдов.
Обожаю отсюда "Theme from to Kill a Dead Man". pray.gif
Ghostb
ЦИТАТА(vosmidesijatye @ Oct 4 2017, 19:21:20) *
Как и Радиобашка какая нибудь наверное, да?

И те, и другие, да. У Radiohead достаточно двух альбомов 1997-2000 гг., чтобы считать их такими.
ЦИТАТА(Black Cat @ Oct 4 2017, 21:32:54) *
Обожаю отсюда "Theme from to Kill a Dead Man"

Только тут тоже в какой-то урезанной версии почему-то. Я там выше кинул линк на полную (да и официальный видеоряд к ней шикарен).
templ
https://youtu.be/y-fZf6d7a4c
Black Cat
Фу, гадость какая. 14.gif
templ
ЦИТАТА(Black Cat @ Oct 4 2017, 21:14:07) *
Фу, гадость какая. 14.gif


ага )
This is a "lo-fi" version of our main content. To view the full version with more information, formatting and images, please click here.
Invision Power Board © 2001-2019 Invision Power Services, Inc.