Help - Search - Members - Calendar
Full Version: All Pigs Must Die - Hostage Animal (2017)
Metal Area - Extreme Music Portal > Releases Area / Релизы > New Releases > Unformat R:
vosmidesijatye


*Artist: All Pigs Must Die
*Album: Hostage Animal
*Year: 2017
*Genre: Chaotic Hardcore
*Country: United States
*Format: mp3@CBR320kbps
*Size: 77MB

Tracklist:
01. Hostage Animal
02. A Caustic Vision
03. Meditation of Violence
04. Slave Morality
05. End Without End
06. Blood Wet Teeth
07. Moral Purge
08. Cruelty Incarnate
09. The Whip
10. Heathen Reign
******************************
Total playing time: 34:59



Technical info

Input File: 01. Hostage Animal.mp3
Channels : 2
Sample Rate : 44100
Precision : 16-bit
Duration : 00:03:01.49 = 8003797 samples = 13611.9 CDDA sectors
File Size : 7.26M
Bit Rate : 320k
Sample Encoding: MPEG audio (layer I, II or III)
Comments :
Title=Hostage Animal
Artist=All Pigs Must Die
Album=Hostage Animal
Tracknumber=01/10
Year=2017
Discnumber=1/1



[ Hidden Text ]
vosmidesijatye
Считаются вроде как безумно бешеной и котируемой среди узкого круга ценителей стиля командой...
This is a "lo-fi" version of our main content. To view the full version with more information, formatting and images, please click here.
Invision Power Board © 2001-2019 Invision Power Services, Inc.