Help - Search - Members - Calendar
Full Version: Lunatic Soul - Fractured (2017)
Metal Area - Extreme Music Portal > Releases Area / Релизы > New Releases > Unformat R:
aesteticvice


*Artist: Lunatic Soul
*Album: Fractured
*Year: 2017
*Genre: Atmospheric Progressive Rock
*Country: Poland
*Format: mp3@CBR320kbps
*Size: 130MB

Tracklist:
1. Blood on the Tightrope
2. Anymore
3. Crumbling Teeth and the Owl Eyes
4. Red Light Escape
5. Fractured
6. A Thousand Shards of Heaven
7. Battlefield
8. Moving On
******************************
Total playing time: 55:26



Extended info


Technical info

Input File: 02 - Anymore.mp3
Channels : 2
Sample Rate : 44100
Precision : 16-bit
Duration : 00:04:36.36 = 12187256 samples = 20726.6 CDDA sectors
File Size : 11.1M
Bit Rate : 322k
Sample Encoding: MPEG audio (layer I, II or III)
Comments :
Title=Anymore
Artist=Lunatic Soul
Album=Fractured
Tracknumber=2
Year=2017
Genre=Melancholic, Progressive Rock



[ Hidden Text ]
aesteticvice
наконец-то да-ду-да-Дуда
mirror
[ Hidden Text ]
Ghostb
Вот это я ждал, прошлый очень крут был. Забираю, спасибо.
aesteticvice
боюсь сглазить, но вот уже позади пол альбома и пока все прекрасно fear.gif как минимум не хуже предыдущего, боялся куда-нить в эмбиент унесет
Ghostb
ЦИТАТА(aesteticvice @ Oct 5 2017, 23:15:24) *
минимум не хуже предыдущего

Да, согласен, отличный альбом. Композиция A Thousand Shards of Heaven особенно выделяется.
ЦИТАТА(aesteticvice @ Oct 5 2017, 23:15:24) *
боюсь сглазить, но вот уже позади пол альбома и пока все прекрасно

Мне вторая половина даже больше нравится.
mittal
Первый альбом был и останется единственным годным альбомом. Здесь мне только упомянутая выше A Thousand Shards of Heaven понравилась.
Ghostb
Мне последние две работы кажутся намного интереснее ранних.
lucifix
320 [ Hidden Text ]
nagval
Старые работы хорошие. Этот тоже послушаем.
Yarri
Оп, оказалось, что пропустил 2011 и 2014. Поскольку этот очень хорошо зашёл, пошёл восполнять пробелы.
This is a "lo-fi" version of our main content. To view the full version with more information, formatting and images, please click here.
Invision Power Board © 2001-2019 Invision Power Services, Inc.