*Artist: Pro-Pain
*Album: Best Of Pro-Pain II [best of/compilation]
*Year: 2005
*Genre: Groove Metal/Hardcore/Thrash Metal
*Country: United States
*Format: mp3@CBR320kbps
*Size: 121MB

Tracklist:
01. Stand Tall 2:43
02. I Remain 2:21
03. In For The Kill 3:09
04. Time Will Tell 3:37
05. Get Real 2:19
06. Don't Kill Yourself To Live 3:33
07. Life's Hard 4:29
08. Smokin' Gun 3:03
09. Gunya Down 4:36
10. Political Suicide 3:35
11. One Man Army 3:10
12. Bad Blood 3:18
13. The Stench Of Piss 3:26
14. God Only Knows 3:27
15. No Way Out (demo) 3:07
16. Shreds Of Dignity (demo) 2:42
******************************
Total playing time: 52:35

Technical info

Input File: 11 - One Man Army.mp3
Channels : 2
Sample Rate : 44100
Precision : 16-bit
Duration : 00:03:10.32 = 8393068 samples = 14273.9 CDDA sectors
File Size : 7.61M
Bit Rate : 320k
Sample Encoding: MPEG audio (layer I, II or III)
Comments :
Title=One Man Army
Artist=Pro-Pain
Album=Best Of Pro-Pain II
Tracknumber=11
Year=2005
Genre=Hardcore



[ Hidden Text ]