Help - Search - Members - Calendar
Full Version: Tarja - O Come, O Come, Emmanuel [single] (2017)
Metal Area - Extreme Music Portal > Releases Area / Релизы > New Releases > Unformat R:
aesteticvice


*Artist: Tarja
*Album: O Come, O Come, Emmanuel [single]
*Year: 2017
*Genre: Neo-Classical/Symphonic Rock
*Country: Finland
*Format: mp3@CBR320kbps
*Size: 11MB

Tracklist:
01. O Come, O Come, Emmanuel
******************************
Total playing time: 4:55

Extended info


Technical info

Input File: 01. O Come, O Come, Emmanuel.mp3
Channels : 2
Sample Rate : 48000
Precision : 16-bit
Duration : 00:04:55.56 = 14187024 samples ~ 22167.2 CDDA sectors
File Size : 11.8M
Bit Rate : 320k
Sample Encoding: MPEG audio (layer I, II or III)
Comments :
Title=O Come, O Come, Emmanuel
Artist=Tarja
Tracknumber=01
Year=2017



[ Hidden Text ]
Aresson
шутка про
ЦИТАТА(aesteticvice @ 6th October 2017 - 22:50:30) *
O Cum, O Cum, Emmanuel

aesteticvice
ЦИТАТА(Aresson @ Oct 7 2017, 10:21:09) *
шутка про

Emmanuel, cumshot, cumshot?
Yarri
Чё-то совсем мимо. Ни шлюх, ни блэк-джэка.
Chasm
I cum blood, Emmanuel! look.gif
MeatWolf
Причёска зачётная. Слушать не буду.
Ogidni
Другие рождественские песни будут?
vosmidesijatye
Где главный ценитель?
Faust_Vulkan_16
QUOTE(vosmidesijatye @ Oct 7 2017, 20:11:19) *
Где главный ценитель?

онанирует не останавливаясь
Aresson
Faust_Vulkan_16, руки заняты, пишу носом
aesteticvice
ЦИТАТА(Aresson @ Oct 7 2017, 19:37:49) *
Faust_Vulkan_16, руки заняты, пишу носом

это не нос... и почему-то покраснел
Arseniy
http://fs.kinomania.ru/file/film_frame/7/92/792f734392a914e255bcf0e0f28ef68b.jpeg

На него похожа, только белая.
vosmidesijatye
ЦИТАТА(Faust_Vulkan_16 @ Oct 7 2017, 18:23:51) *
онанирует не останавливаясь

Песня традиционно никакая. Ей бы больше песен типа ин фо зе килл а не это пафосное соплежуйство.
Old Vyaine
QUOTE(vosmidesijatye @ 9th October 2017 - 15:00:32) *
Песня традиционно никакая.


Рождественский гимн 12-го века. Искусство по-прежнему в большом, неоплатном долгу перед Артёмкой 1488.gif
vosmidesijatye
ЦИТАТА(Old Vyaine @ Oct 9 2017, 15:03:36) *
Рождественский гимн 12-го века. Искусство по-прежнему в большом, неоплатном долгу перед Артёмкой 1488.gif


Это понятно. Только кто сказал что рождественская музыка это хорошо?
Arseniy
ЦИТАТА(vosmidesijatye @ 9th October 2017 - 15:05:50) *
Только кто сказал что рождественская музыка это хорошо?

God rest ye, merry gentlemAn.
Old Vyaine
QUOTE(vosmidesijatye @ 9th October 2017 - 15:05:50) *
Это понятно


стало тебе пять минут назад.

Ну, и песня чуть ли не тысячелетней давности никак не может быть традиционно никакой для кого бы то ни было.

Сказал бы, что ты снова сел в лужу, но ты ведь из неё и не вылезаешь.
vosmidesijatye
ЦИТАТА(Old Vyaine @ Oct 9 2017, 15:10:19) *
Ну, и песня чуть ли не тысячелетней давности никак не может быть традиционно никакой для кого бы то ни было.

Ну тебе же еще и фолк нравится да 1488.gif
aesteticvice
ЦИТАТА(vosmidesijatye @ Oct 9 2017, 12:05:50) *
Это понятно. Только кто сказал что рождественская музыка это хорошо?

Миллионы христанутых семей как минимум
IntoTheSun89
ЦИТАТА(Ogidni @ 7th October 2017 - 17:13:43) *
Другие рождественские песни будут?

Будут. Релиз полноформатника 17 ноября, но до этого появится ещё один сингл.

По синглу: ценю творчество Фрау, но всем слушателям угодить невозможно. Во всяком случае, сделаю ещё попытки раскусить кавер. Но ещё интересней будет послушать "Ave Maria" в дуэте с Марко в рамках диска проекта "Raskasta Joulua", который также 17 ноября выйдет.

P.S.: Кстати, сингл на физическом носителе содержит 2 версии песни: эту и на французском, вроде.
This is a "lo-fi" version of our main content. To view the full version with more information, formatting and images, please click here.
Invision Power Board © 2001-2019 Invision Power Services, Inc.