Help - Search - Members - Calendar
Full Version: My Sleeping Karma - Mela Ananda [live] (2017)
Metal Area - Extreme Music Portal > Releases Area / Релизы > New Releases > Unformat R:
fylopaloma


*Artist: My Sleeping Karma
*Album: Mela Ananda [live]
*Year: 2017
*Genre: Progressive/Psychedelic/Space Rock
*Country: Germany
*Format: mp3@CBR320kbps
*Size: 162MB

Tracklist:
1 Prithvi 6:43
2 Enigma42 6:49
3 Glow11 7:46
4 Ephedra 6:42
5 Vayu 5:07
6 Akasha 6:44
7 Brahama 8:12
8 Psilocybe 8:24
9 Tamas 5:46
10 Hymn72 6:35
******************************
Total playing time: 1:08:48





Extended info
Recorded by Marco Naumann during Up In Smoke Tour Vol.6 in February 2016
Recording locations Paris (Divan Du Monde), Antwerpen (Trix) and Stuttgart (Universum)
Mixed and produced by Steffen at Mjusix Studio Aschaffenburg
Mastered by Andreas Balaskas at Masterlab Studio Berlin (masterlab-online.de)
Coverartwork and Layout by Sebastian Jerke (www.sebastianjerke.de)


Technical info

Input File: 5 Vayu.mp3
Channels : 2
Sample Rate : 44100
Precision : 16-bit
Duration : 00:05:05.92 = 13491160 samples = 22944.1 CDDA sectors
File Size : 12.7M
Bit Rate : 333k
Sample Encoding: MPEG audio (layer I, II or III)
Comments :
Title=Vayu
Artist=My Sleeping Karma
Album=Mela Ananda (Live)
Tracknumber=5
Year=2017
Discnumber=1/1



[ Hidden Text ]
Ghostb
Облога как всегда хороша.
This is a "lo-fi" version of our main content. To view the full version with more information, formatting and images, please click here.
Invision Power Board © 2001-2019 Invision Power Services, Inc.