*Artist: Nhor
*Album: Wildflowers: Autumn
*Year: 2017
*Genre: Neoclassical Ambient
*Country: United Kingdom
*Format: mp3@CBR320kbps
*Size: 55MB

Tracklist:
1. Where They Once Were 03:34
2. The Trees Knew Not Of Me Then 02:20
3. Moonfall 04:44
4. We Set Their Bodies Free In The Cold River 01:54
5. What We Hid In The Night 04:08
6. Fire Promises Guidance 04:41
7. Fate 01:50
******************************
Total playing time: 23:11



Extended info
Special for Metalarea.org


Technical info

Input File: Nhor - Wildflowers- Autumn - 01 Where They Once Were.mp3
Channels : 2
Sample Rate : 44100
Precision : 16-bit
Duration : 00:03:34.64 = 9465712 samples = 16098.1 CDDA sectors
File Size : 8.70M
Bit Rate : 324k
Sample Encoding: MPEG audio (layer I, II or III)
Comments :
Title=Where They Once Were
Artist=Nhor
Album=Wildflowers: Autumn
Tracknumber=1
Year=2017



[ Hidden Text ]