Help - Search - Members - Calendar
Full Version: Daniel Cavanagh - Monochrome (2017)
Metal Area - Extreme Music Portal > Releases Area / Релизы > New Releases > Unformat R:
aesteticvice


*Artist: Daniel Cavanagh
*Album: Monochrome
*Year: 2017
*Genre: Atmospheric Rock
*Country: United Kingdom
*Format: mp3@CBR320kbps
*Size: 115MB

Tracklist:
01. The Exorcist 06:43
02. This Music (feat Anneke Van Giersbergen) 04:50
03. Soho (feat Anneke Van Giersbergen) 07:39
04. The Silent Flight Of The Raven Winged Hours 09:03
05. Dawn 02:42
06. Oceans Of Time (feat Anneke Van Giersbergen) 08:14
07. Some Dreams Come True 08:34
******************************
Total playing time: 47:45

Extended info
Guest:
Anneke Van Giersbergen – ex-vocalist for The Gathering and the exceptionally talented Anna Phoebe provides also violin on three of the album tracks


Technical info

Input File: 02. This Music.mp3
Channels : 2
Sample Rate : 44100
Precision : 16-bit
Duration : 00:04:53.05 = 12923285 samples = 21978.4 CDDA sectors
File Size : 12.1M
Bit Rate : 330k
Sample Encoding: MPEG audio (layer I, II or III)
Comments :
Title=This Music
Artist=Daniel Cavanagh
Album=Monochrome
Tracknumber=2/7
Year=2017



[ Hidden Text ]
aesteticvice
mirror
[ Hidden Text ]

Old Vyaine
Честно говоря, прошлый сольник Данилы был жутко уныл. Но там не было Аньки, так что надежда есть.
Ghostb
Альбом прекрасен, возможно, сильнее последней Анафемы (которая мне тоже нравится). Во всяком случае, не такой предсказуемо форматный. Но Винсент (а многие треки вполне могли бы прозвучать и в исполнении основной группы), конечно, спел бы лучше.
ЦИТАТА(Old Vyaine @ Oct 12 2017, 22:53:32) *
прошлый сольник Данилы был жутко уныл

Это какой? У него сплошь каверы до этого были.
paganheart
Очень такой эфирный, суборбитальный, я бы сказал, альбом - мне очень понравилось. headcrab.png
Old Vyaine
QUOTE(paganheart @ 13th October 2017 - 22:59:33) *
Это какой? У него сплошь каверы до этого были.


Daniel Cavanagh & Joseph Geraci - The Passage (2013)

позапрошлый, ок.
folker
жырище! лучше крайней Anathema smile1.gif
This is a "lo-fi" version of our main content. To view the full version with more information, formatting and images, please click here.
Invision Power Board © 2001-2019 Invision Power Services, Inc.