*Artist: Dax Riggs
*Album: Say Goodnight To The World
*Year: 2010
*Genre: Stoner Rock
*Country: United States
*Format: mp3@CBR320kbps
*Size: 81MB

Tracklist:
01. Say Goodnight To The World 4:19
02. I Hear Satan 2:59
03. You Were Born To Be My Gallows 2:53
04. Gravedirt On My Blue Suede Shoes 2:21
05. Like Moonlight 4:09
06. No One Will Be A Stranger 2:58
07. Heartbreak Hotel (Elvis Presley cover) 4:17
08. Sleeping With The Witch 2:57
09. Let Me Be Your Cigarette 2:48
10. See You All In Hell Or New Orleans 4:46
******************************
Total playing time: 34:27

Extended info
Dax Riggs was the singer and lyricist of Acid Bath


Technical info

Input File: 01 - Say Goodnight To The World.mp3
Channels : 2
Sample Rate : 44100
Precision : 16-bit
Duration : 00:04:19.29 = 11434689 samples = 19446.8 CDDA sectors
File Size : 10.4M
Bit Rate : 320k
Sample Encoding: MPEG audio (layer I, II or III)
Comments :
Title=Say Goodnight To The World
Artist=Dax Riggs
Album=Say Goodnight To The World
Tracknumber=1
Year=2010
Genre=Rock



[ Hidden Text ]