Help - Search - Members - Calendar
Full Version: Paura - Slowly Dying Of Survivor (2017)
Metal Area - Extreme Music Portal > Releases Area / Релизы > New Releases > Unformat R:
aesteticvice


*Artist: Paura
*Album: Slowly Dying Of Survivor
*Year: 2017
*Genre: Hardcore
*Country: Brazil
*Format: mp3@CBR320kbps
*Size: 80MB

Tracklist:
01. Urban Decay 3:01
02. Open All Borders 3:57
03. Fool's Gold Rush 2:40
04. No Competition in True Love 2:55
05. Call on All Sisters 2:05
06. Deny and Defy 2:34
07. Because We Care 3:36
08. Wisdom Hunt 3:08
09. Mayhem Skills 3:05
10. Design New Lines 3:05
11. Gay OK! 6:33
******************************
Total playing time: 36:39




Extended info
Voz: Fabio Prandini
Guitarra: Claudinei Ferreira
Guitarra : Rogério FR
Baixo e voz : Paulo Demutti
Bateria: João Limeira



Technical info

Input File: 06 Deny and Defy.mp3
Channels : 2
Sample Rate : 44100
Precision : 16-bit
Duration : 00:02:34.35 = 6806791 samples = 11576.2 CDDA sectors
File Size : 6.31M
Bit Rate : 327k
Sample Encoding: MPEG audio (layer I, II or III)
Comments :
Title=Deny and Defy
Artist=Paura
Album=Slowly Dying of Survivor
Tracknumber=6/11
Year=2017
Genre=17
Discnumber=1/1



[ Hidden Text ]
aesteticvice
MIRROR
[ Hidden Text ]
This is a "lo-fi" version of our main content. To view the full version with more information, formatting and images, please click here.
Invision Power Board © 2001-2019 Invision Power Services, Inc.