*Artist: Sasha Monster
*Album: Red
*Year: 2015
*Genre: Art/Post Rock
*Country: Russian Federation
*Format: mp3@CBR320kbps
*Size: 72MB

Tracklist:
01 - In Red
02 - Bad News
03 - Deep Dive
04 - Radar
05 - Landscapes and Faces
06 - Slow Drill
07 - Pa Ka Q
08 - Majes
******************************
Total playing time: 31:42

Technical info

Input File: 01 - Sasha Monster - In Red.mp3
Channels : 2
Sample Rate : 44100
Precision : 16-bit
Duration : 00:03:32.74 = 9382010 samples = 15955.8 CDDA sectors
File Size : 8.51M
Bit Rate : 320k
Sample Encoding: MPEG audio (layer I, II or III)
Comments :
Title=In Red
Artist=Sasha Monster
Album=Red
Tracknumber=1
Year=2015



[ Hidden Text ]