Help - Search - Members - Calendar
Full Version: Vanity - Occult You (2013)
Metal Area - Extreme Music Portal > Releases Area / Релизы > New Releases > Unformat R:
nnnmmm


*Artist: Vanity
*Album: Occult You
*Year: 2013
*Genre: Shoegaze/Post-Punk
*Country: Italy
*Format: mp3@CBR320kbps
*Size: 91MB

Tracklist:
01. Sleeping Tears 4:32
02. Under Black Ice 4:12
03. Ghosts 3:32
04. Ruins 4:22
05. Pagan Hearts 3:38
06. Sun 3:56
07. Time's New Romance 4:13
08. Limbo 1:30
09. Occult You 4:49
10. The Wanderer 5:06
******************************
Total playing time: 39:50



Technical info

Input File: 05 - Vanity - Pagan Hearts.mp3
Channels : 2
Sample Rate : 44100
Precision : 16-bit
Duration : 00:03:38.48 = 9635056 samples = 16386.1 CDDA sectors
File Size : 8.74M
Bit Rate : 320k
Sample Encoding: MPEG audio (layer I, II or III)
Comments :
Title=Pagan Hearts
Artist=Vanity
Album=Occult You
Tracknumber=5
Year=2013
Genre=Metal



[ Hidden Text ]
Old Vyaine
This is a "lo-fi" version of our main content. To view the full version with more information, formatting and images, please click here.
Invision Power Board © 2001-2019 Invision Power Services, Inc.