Help - Search - Members - Calendar
Full Version: Michael Idehall - Machine Spirit Transmission (2017)
Metal Area - Extreme Music Portal > Releases Area / Релизы > New Releases > Unformat R:
Haunting


*Artist: Michael Idehall
*Album: Machine Spirit Transmission
*Year: 2017
*Genre: Industrial/Experimental
*Country: Sweden
*Format: mp3@CBR320kbps
*Size: 108MB

Tracklist:
1. Opening 02:44
2. Ma Kra Oum Ka Bra Nha 05:26
3. Power Mantra 04:42
4. Dream Circuitry 03:29
5. The Singing Of Machines 04:16
6. Technological Automatism 03:50
7. Aukos 05:46
8. Prophecy Of the Apparatus God 17:43
******************************
Total playing time: 47:56



Technical info

Input File: 01 - Michael Idehall – Opening.mp3
Channels : 2
Sample Rate : 44100
Precision : 16-bit
Duration : 00:02:45.03 = 7277955 samples = 12377.5 CDDA sectors
File Size : 6.64M
Bit Rate : 322k
Sample Encoding: MPEG audio (layer I, II or III)
Comments :
Title=Opening
Artist=Michael Idehall
Album=Machine Spirit Transmission
Tracknumber=1/8
Year=2017



[ Hidden Text ]
Haunting
[ Hidden Text ]
This is a "lo-fi" version of our main content. To view the full version with more information, formatting and images, please click here.
Invision Power Board © 2001-2019 Invision Power Services, Inc.