Help - Search - Members - Calendar
Full Version: Vrasësinerëzve & Black Wilderness - Untitled [split] (2016)
Metal Area - Extreme Music Portal > Releases Area / Релизы > New Releases > Unformat R:
lestllk


*Artist: Vrasësinerëzve & Black Wilderness
*Album: Untitled [split]
*Year: 2016
*Genre: Dark Ambient | Dark Ambient
*Country: Bosnia and Herzegovina | United States
*Format: mp3@CBR320kbps
*Size: 67MB

Tracklist:
Black Wilderness:
A1. Untitled
A2. Translucent Shadows of the Devil Within / My Predatory Infatuation Will Never Rest
Vrasësinerëzve:
B1. Untitled
B2. Collecting the Damned Souls from Burial Ground / My Inhuman Hunger Will Grow Through the Night
******************************
Total playing time: 28:53



Extended info
Nebular Carcoma Records ‎– MOSS 014

Pro-cassette tape limited to 33 hand-numbered copies.


Technical info

Input File: 03 - Vrasësinerëzve - Untitled.mp3
Channels : 2
Sample Rate : 44100
Precision : 16-bit
Duration : 00:07:04.71 = 18729799 samples = 31853.4 CDDA sectors
File Size : 17.0M
Bit Rate : 320k
Sample Encoding: MPEG audio (layer I, II or III)
Comments :
Title=Untitled
Artist=VrasГ«sinerГ«zve
Album=Untitled
Tracknumber=3
Year=2016
Genre=Dark Ambient



[ Hidden Text ]
AlexCrazy
штатники решили закосить под LLN что ли? smile1.gif)
This is a "lo-fi" version of our main content. To view the full version with more information, formatting and images, please click here.
Invision Power Board © 2001-2019 Invision Power Services, Inc.