Help - Search - Members - Calendar
Full Version: Northaunt - Night Paths (2017)
Metal Area - Extreme Music Portal > Releases Area / Релизы > New Releases > Unformat R:
Haunting


*Artist: Northaunt
*Album: Night Paths
*Year: 2017
*Genre: Dark Ambient
*Country: Norway
*Format: mp3@CBR320kbps
*Size: 150MB

Tracklist:
1. I Don't Regret Anything 05:51
2. Skjelletering 05:07
3. Blood Trail 02:46
4. Beneath The Ice 05:39
5. Mosselbukta 06:32
6. Nightfall In The Woods 05:33
7. Sunken 02:43
8. Tjernet 08:26
9. Villmark 07:35
10. Hjerteslag 04:29
11. Natt 10:53
******************************
Total playing time: 1:05:34



Extended info
For many many years I have hiked into the woods, trying to get away from it all. Precious days offering silence and room for new thoughts. Nights spent in the wild, watching familiar forms transform as darkness fall, feeling it stir something inside, something overlooked in the stress and clutter of everyday life. This is my channelling of these feelings, my tribute if you like, to night, the woods and solitude.


Technical info

Input File: 02 - Skjelletering.mp3
Channels : 2
Sample Rate : 44100
Precision : 16-bit
Duration : 00:05:07.05 = 13540685 samples = 23028.4 CDDA sectors
File Size : 12.3M
Bit Rate : 321k
Sample Encoding: MPEG audio (layer I, II or III)
Comments :
Title=Skjelletering
Artist=Northaunt
Album=Night Paths
Tracknumber=2
Year=2017
Genre=Dark Ambient



[ Hidden Text ]
recber
pray.gif pray.gif pray.gif
Dreamtale
Не самый мой любимый ДА - но trv kvlt, без вариантов!
gena
жаль, ничего не затронуло, прослушал, забыл (
6666666
Какие из известных аналогов?
Haunting
ЦИТАТА(6666666 @ Nov 1 2017, 20:27:55) *
Какие из известных аналогов?

Svartsinn (новый альбом залью как-нибудь, если никто другой не озаботится), Therradaemon, Kammarheit, Kave "Ominousium", Mulm "The End of Greatness"... Ну или другая продукция с лейбла Cyclic Law.
6666666
...и никакого из них не знаю.
Forest Silence
ЦИТАТА(6666666 @ Nov 1 2017, 23:36:51) *
...и никакого из них не знаю.

ну например еще vinterriket "zeit-los:laut-los" и подобное, минималистичное. велеентор "перевал дятлова"
Haunting
ЦИТАТА(6666666 @ Nov 1 2017, 21:36:51) *
...и никакого из них не знаю.

Не припоминаю, чтобы ты нарекал себя знатоком dark ambient, потому и не удивлюсь 1488.gif
postED
Хорошая такая ретроспектива получилась. I Don't Regret Anything и слегка другую Nightfall in the Woods можно найти на редком сплите 2009 года, а Villmark - это та великолепная альтверсия The Wilderness, что шла бонусным видео к альбому Horizons.
Un4given
Отлично
Понравилось больше предыдущего (Istid)
This is a "lo-fi" version of our main content. To view the full version with more information, formatting and images, please click here.
Invision Power Board © 2001-2019 Invision Power Services, Inc.