Help - Search - Members - Calendar
Full Version: Deviate Damaen - Retro-Marsch Kiss (2015)
Metal Area - Extreme Music Portal > Releases Area / Релизы > New Releases > Unformat R:
MaskedDeadRecords


*Artist: Deviate Damaen
*Album: Retro-Marsch Kiss
*Year: 2015
*Genre: Gothic Metal/Experimental/Theatrical
*Country: Italy
*Format: mp3@CBR320kbps
*Size: 282MB

Tracklist:
1. Bacio Di Ritorno
2. Descendi, Frigus!
3. L'Antimissionar
4. Centone "Ad Guerram" - Lyturgika'ss III
5. Ombre Senza Tombe (Globulo Primo)
6. Narcissus Race (Bunker Remix) - Centone "Ad Speculum"
7. Sepolcreto E Nobiltà, Solfeggiar D'Identità! - Quell'Eterna Eco Di Gloria Che Noi Saremo (Globulo Secundo)
8. Così Parlo Costantino XI (Globulo Tertio)
9. Basta Non Basta (V Movimenti: Con Le Budella Dei Buoni Ci Si Strozzano I Cattivi, Basta Non Somiglianza, Discordia In Marcia, Orgiasticum Metallum Nostrum, Olio Alle Grondaie)
10. La Preghiera Di Dante (Globulo Quarto)
11. Gothiko, Non Hai Capito Un Cazzo Se... - Centone "Ad Coronam"
12. Il Valzer Del Retrogrado
13. Elektr'n'Culo Pasquinata - Centone "Ad Patriam Et Eius Finium Sacertatem"
14. La Fine Che Non C'è
15. Schiuma Su Sto Scroto, Progressista! (Live)
16. Rintocchi D'Occaso
******************************
Total playing time: 1:32:30



Technical info

Input File: 2 - DESCENDI, FRIGUS!.mp3
Channels : 2
Sample Rate : 44100
Precision : 16-bit
Duration : 00:02:41.57 = 7125105 samples = 12117.5 CDDA sectors
File Size : 6.46M
Bit Rate : 320k
Sample Encoding: MPEG audio (layer I, II or III)
Comments :
Title=DESCENDI, FRIGUS
Artist=Deviate Damaen
Album=Retro-Marsch Kiss
Tracknumber=2



[ Hidden Text ]
99ea
парни, перезалейте пож. на какой нибудь другой файлообменник!!!
This is a "lo-fi" version of our main content. To view the full version with more information, formatting and images, please click here.
Invision Power Board © 2001-2019 Invision Power Services, Inc.