Help - Search - Members - Calendar
Full Version: Troum - Da​-​Pu​-​Ri​-​To​-​Jo [best of/compilation] (2017)
Metal Area - Extreme Music Portal > Releases Area / Релизы > New Releases > Unformat R:
Haunting


*Artist: Troum
*Album: Da​-​Pu​-​Ri​-​To​-​Jo [best of/compilation]
*Year: 2017
*Genre: Drone Ambient
*Country: Germany
*Format: mp3@CBR320kbps
*Size: 161MB

Tracklist:
1. Aerugo 04:53
2. Aetas Vetus 06:54
3. Agnus Dei 04:34
4. Betonwolke 08:44
5. Das Air 06:16
6. Gruoen 07:01
7. Nargis 08:14
8. Saiws 06:49
9. Segeler 04:15
10. Un / Mahts 06:29
11. Victoria 03:43
12. Unreleased Theme For River Endscene 02:59
******************************
Total playing time: 1:10:51



Extended info
This is a collection of Troum's 7" vinyl releases united by one theme and idea, becoming the album "Da-Pu-Ri-To-Jo". All tracks were full remastered!
Black Mara Records.


Technical info

Input File: 01 - Aerugo.mp3
Channels : 2
Sample Rate : 44100
Precision : 16-bit
Duration : 00:04:52.99 = 12920947 samples = 21974.4 CDDA sectors
File Size : 11.8M
Bit Rate : 321k
Sample Encoding: MPEG audio (layer I, II or III)
Comments :
Title=Aerugo
Artist=Troum
Album=Da​-​Pu​-​Ri​-​To​-​Jo
Tracknumber=01/12
Year=2017
Genre=Drone Ambient



[ Hidden Text ]
postED
Казалось, все это уже слышал и раньше, но как же цепляет 20.gif
svndvst
Как метко подметил некий юзер на discogs'e: "When other ambient/drone masters just hold a candle, Troum is itself the Sun."
Подписываюсь.
This is a "lo-fi" version of our main content. To view the full version with more information, formatting and images, please click here.
Invision Power Board © 2001-2019 Invision Power Services, Inc.