Help - Search - Members - Calendar
Full Version: Altar Of Sin - Tales Of Carnage First Class (2012)
Metal Area - Extreme Music Portal > Releases Area / Релизы > Archive
smysl


*Artist: Altar Of Sin
*Album: Tales Of Carnage First Class
*Year: 2012
*Genre: Death/Thrash Metal
*Country: Spain
*Format: mp3@CBR320kbps
*Size: 104MB

Tracklist:
1. Master Satan 04:56
2. Wrapped in a Black Cloak 02:58
3. Tales of Carnage 03:38
4. Hard & Extreme 03:21
5. Voodoo Hell (Blessed by the Devil) 04:34
6. De Tribus Impostoribus 05:32
7. Les Demons 02:44
8. Into the Circle Pit 03:28
9. Outro: Malignant Enclosure 00:56
******************************
Total playing time: 32:07




Extended info
CD-Rip + scans


Technical info

Input File: 01 Master Satan.mp3
Channels : 2
Sample Rate : 44100
Precision : 16-bit
Duration : 00:04:57.84 = 13134568 samples = 22337.7 CDDA sectors
File Size : 11.9M
Bit Rate : 320k
Sample Encoding: MPEG audio (layer I, II or III)
Comments :
Title=Master Satan
Artist=Altar of Sin
Album=Tales of Carnage First Class
Tracknumber=1
Year=2012
Genre=Death/Thrash Metal



[ Hidden Text ]
DarkHorde
Lossless: FLAC (image+.cue+.log) + Covers Altar Of Sin - Tales Of Carnage First Class (2012) [post #2111130]
This is a "lo-fi" version of our main content. To view the full version with more information, formatting and images, please click here.
Invision Power Board © 2001-2021 Invision Power Services, Inc.