Help - Search - Members - Calendar
Full Version: Nick Cave And The Bad Seeds - Henry's Dream (1992)
Metal Area - Extreme Music Portal > Releases Area / Релизы > New Releases > Unformat R:
INDARKNESS


*Artist: Nick Cave And The Bad Seeds
*Album: Henry's Dream
*Year: 1992
*Genre: Alternative Rock
*Country: Australia
*Format: mp3@CBR320kbps
*Size: 96MB

Tracklist:
01.Papa Won't Leave You, Henry
02.I Had A Dream, Joe
03.Straight To You
04.Brother, My Cup Is Empty
05.Christina The Astonishing
06.When I First Came To Town
07.John Finns' Wife
08.Loom Of The Land
09.Jack The Ripper
******************************
Total playing time: 41:35

Extended info
Remastered 2010


Technical info

Input File: 1 - Nick Cave & The Bad Seeds - Papa Won\'t You Leave_ Henry (2010 Remastered Version).mp3
Channels : 2
Sample Rate : 44100
Precision : 16-bit
Duration : 00:05:55.62 = 15682710 samples = 26671.3 CDDA sectors
File Size : 14.3M
Bit Rate : 322k
Sample Encoding: MPEG audio (layer I, II or III)
Comments :
Title=Papa Won't You Leave, Henry (2010 Remastered Version)
Artist=Nick Cave & The Bad Seeds
Album=Henry's Dream (2010 Remastered Version)
Tracknumber=1/9
Year=2010



[ Hidden Text ]
Ghostb
Не лучший диск Кейва, на мой взгляд. Любой из периода 1988-2001 гг. поставлю выше.
vam1972
ЦИТАТА(Ghostb @ Jan 10 2018, 01:29:01) *
Не лучший диск Кейва, на мой взгляд. Любой из периода 1988-2001 гг. поставлю выше.

Взгляд замылился. Одна из лучших работ Кейва, этакий разухабистый по настроению альбом, особенно - после камерного дельтаблюзового The Good Son. Напоминает временный всплеск эмоций и сил после того, как опохмелился, пьяное веселье от того, что пока "еще есть", но скоро кончится, а взять больше негде. На вскидку - три таких похмельно-танцевальных номера с запоминающимися мелодиями и въедливыми рефренами, аж прям "щас спою": Papa Won't Leave You, Henry, Brother, My Cup Is Empty, I Had A Dream, Joe. Последнюю я так вообще считаю черноюморным ответом на фразу веселого американского негра Мартина Л.Кинга. Да, еще есть Christina The Astonishing, пьяный плач по себе любимому и какой-то там Кристинке.
Ghostb
ЦИТАТА(vam1972 @ Jan 25 2018, 16:26:52) *
этакий разухабистый по настроению альбом, особенно - после камерного дельтаблюзового The Good Son

Я согласен, но, видимо, более камерный Кейв мне несколько ближе. И вещей уровня "The Ship Song"/"The Weeping Song" с предыдущего, на мой взгляд, здесь нет, хотя, перечисленные тобой вполне хороши.
Njelfur
ЦИТАТА(vam1972 @ Jan 25 2018, 17:26:52) *
Да, еще есть Christina The Astonishing, пьяный плач по себе любимому и какой-то там Кристинке.

Просвещайся bye.gif
https://en.wikipedia.org/wiki/Christina_the_Astonishing
Кейв сильно религиозный чувак стал, как слез с героина.

А альбом, наверное, любимый у Кейва. Сильно пьяный, но не разухабистый, даже не веселый, скорее отдающий угрюмым провинциальным мраком.
vam1972
ЦИТАТА(Njelfur @ Jan 25 2018, 22:33:00) *

Спасибо, конечно. Только я с этим еще году в 1994 разобрался, когда лирику Кейвовскую переводил.
This is a "lo-fi" version of our main content. To view the full version with more information, formatting and images, please click here.
Invision Power Board © 2001-2019 Invision Power Services, Inc.