Help - Search - Members - Calendar
Full Version: Mantus - Staub & Asche (2018)
Metal Area - Extreme Music Portal > Releases Area / Релизы > New Releases > Unformat R:
aesteticvice


*Artist: Mantus
*Album: Staub & Asche
*Year: 2018
*Genre: Symphonic Gothic Metal/Darkwave
*Country: Germany
*Format: mp3@CBR320kbps
*Size: 103MB

Tracklist:
01. Im Innern
02. Phosphor
03. Krieger
04. Frei in Gedanken
05. Poet
06. Fremd
07. Wir Sind die Nacht
08. Melancholische Unruhe
09. Liebe
10. Natur und Schmerz
11. Alles Brennt
12. Weib und Kalt
******************************
Total playing time: 49:35



Extended info





Technical info

Input File: 04 Frei in Gedanken.mp3
Channels : 2
Sample Rate : 44100
Precision : 16-bit
Duration : 00:03:46.85 = 10003865 samples = 17013.4 CDDA sectors
File Size : 9.15M
Bit Rate : 323k
Sample Encoding: MPEG audio (layer I, II or III)
Comments :
Title=Frei in Gedanken
Artist=Mantus
Album=Staub & Asche
Tracknumber=4/12
Year=2018
Discnumber=1/1



[ Hidden Text ]
natrogrii
хм, пишет
Ошибка 404
Файла не существует или он был удалён с сервера
Возможно, истек срок его хранения или в строке адреса вы набрали абракадабру.

пофиксите что ли pray.gif
Tarelka
ЦИТАТА(natrogrii @ Jan 12 2018, 10:57:19) *
хм, пишет
Ошибка 404
Файла не существует или он был удалён с сервера
Возможно, истек срок его хранения или в строке адреса вы набрали абракадабру.

пофиксите что ли pray.gif


тут есть
[ Hidden Text ]
[ Hidden Text ]
aesteticvice
ЦИТАТА(natrogrii @ Jan 12 2018, 09:57:19) *
хм, пишет
Ошибка 404
Файла не существует или он был удалён с сервера
Возможно, истек срок его хранения или в строке адреса вы набрали абракадабру.

пофиксите что ли pray.gif

ошибка была в файле, поправил
DenisKov
Ни одного приличного трека, на прошлых стабильно присутствовали.
This is a "lo-fi" version of our main content. To view the full version with more information, formatting and images, please click here.
Invision Power Board © 2001-2019 Invision Power Services, Inc.