Help - Search - Members - Calendar
Full Version: Ode In Black - Seeds Of Chaos (2018)
Metal Area - Extreme Music Portal > Releases Area / Релизы > New Releases > Unformat R:
Samaritianin


*Artist: Ode In Black
*Album: Seeds Of Chaos
*Year: 2018
*Genre: Melodic Heavy/Gothic Metal
*Country: Finland
*Format: mp3@CBR320kbps
*Size: 104MB

Tracklist:
1. Fountain of Grief
2. The Sea in Which We Drown
3. Goodbye
4. Seeds of Chaos
5. The Mirror
6. Burden
7. The Lone Wolf
8. Burn the Candle from Both Ends
9. Devil’s Kin
10. Of a Thousand Lies
11. Lullaby for the Innocent
******************************
Total playing time: 45:06

Preview 1


Extended info
Pasi Mäenpää - vocals
Iiro Saarinen - guitars
Juhani Saarinen - guitars
Ville Puustinen - bass
Taisto Ristivirta - drums



Technical info

Input File: 2 - The Sea In Which We Drown.mp3
Channels : 2
Sample Rate : 44100
Precision : 16-bit
Duration : 00:04:11.31 = 11082639 samples = 18848 CDDA sectors
File Size : 10.1M
Bit Rate : 320k
Sample Encoding: MPEG audio (layer I, II or III)
Comments :
Title=The Sea In Which We Drown
Artist=Ode In Black
Album=Seeds Of Chaos
Tracknumber=2/11
Year=2018



[ Hidden Text ]
aesteticvice
Каке хэви crazy.gif более попсовая HIMовщина галимая котик роковая, даже группа пишет на фейсбуке шо это не митол 1488.gif хотя если лайтовый хим это хэви метал... тада ой
два баннера висят
Жанр: Rock
Ode In Black is a Finnish rock band from Kuopio/Tampere
Samaritianin
[ Hidden Text ]
Starseeker
Попса, да, хотя не такая уж и плохая. Что-то в ней есть.
yarrsuaa
ЦИТАТА(aesteticvice @ Jan 14 2018, 20:23:43) *
Каке хэви crazy.gif более попсовая HIMовщина галимая котик роковая, даже группа пишет на фейсбуке шо это не митол cpio/Tampere


Ничем не хуже тех же Entwine или Charon, которые в формате и тут, и на метал-архивах...
This is a "lo-fi" version of our main content. To view the full version with more information, formatting and images, please click here.
Invision Power Board © 2001-2019 Invision Power Services, Inc.